<?xml version="1.0" standalone="no"?>
<!DOCTYPE svg PUBLIC "-//W3C//DTD SVG 1.1//EN" "http://www.w3.org/Graphics/SVG/1.1/DTD/svg11.dtd" >
<!--
2013-8-23: Created.
-->
<svg xmlns="http://www.w3.org/2000/svg">
<metadata>
Created by FontForge 20120731 at Fri Aug 23 09:25:55 2013
 By Jordan Humphreys
Created by Jordan Humphreys with FontForge 2.0 (http://fontforge.sf.net)
</metadata>
<defs>
<font id="fontcustom" horiz-adv-x="369" >
  <font-face
    font-family="fontcustom"
    font-weight="500"
    font-stretch="normal"
    units-per-em="512"
    panose-1="2 0 6 3 0 0 0 0 0 0"
    ascent="448"
    descent="-64"
    bbox="-0.584459 -64.25 512.25 448.25"
    underline-thickness="25.6"
    underline-position="-51.2"
    unicode-range="U+F100-F21A"
  />
    <missing-glyph />
    <glyph glyph-name="uniF100" unicode="&#xf100;" horiz-adv-x="340"
d="M330 287v0h-24v-30h24c6 0 10 -4 10 -10v-30c0 -6 -4 -10 -10 -10h-24v-29h24c6 0 10 -5 10 -11v-30c0 -6 -4 -10 -10 -10h-24v-29h24c6 0 10 -5 10 -11v-30c0 -6 -4 -10 -10 -10h-24v-9c0 -9 -7 -16 -16 -16h-274c-9 0 -16 7 -16 16v308c0 9 7 16 16 16h274
c9 0 16 -7 16 -16v-9h24c6 0 10 -4 10 -10v-30c0 -6 -4 -10 -10 -10zM234 122v0v44c0 4 -3 8 -6 10l-55 26c13 8 21 24 21 42c0 26 -18 48 -41 48s-41 -22 -41 -48c0 -19 9 -34 22 -42l-56 -26c-3 -2 -5 -6 -5 -10v-44c0 -6 4 -11 9 -11h142c5 0 10 5 10 11z" />
    <glyph glyph-name="uniF101" unicode="&#xf101;" horiz-adv-x="425"
d="M423 31c1 -2 2 -4 2 -7c0 -10 -9 -18 -19 -18v0h-388v0c-10 0 -18 8 -18 18c0 4 1 9 4 12v0l191 331h1c3 6 8 11 16 11c7 0 13 -3 16 -9l193 -334c0 -1 1 -1 1 -2l1 -2v0zM213 40c14 0 26 12 26 27s-12 26 -26 26c-15 0 -27 -11 -27 -26s12 -27 27 -27zM239 273v0v0v0v0
c0 6 -5 10 -11 10v0h-32v0c-5 0 -10 -4 -10 -10v-1v-144v0v0c0 -6 5 -11 11 -11h31v0v0c6 0 11 5 11 11v0v0v145z" />
    <glyph glyph-name="uniF102" unicode="&#xf102;" horiz-adv-x="355"
d="M337 370c10 0 18 -7 18 -17v-16c0 -10 -8 -17 -18 -17h-320c-10 0 -17 7 -17 17v16c0 10 7 17 17 17h320zM312 235c0 -10 -8 -17 -18 -17v0h-233c-10 0 -18 7 -18 17v16c0 10 8 17 18 17h233v0c10 0 18 -7 18 -17v0v-16v0zM320 64c10 0 17 -7 17 -17v0v-16v0
c0 -10 -7 -17 -17 -17v0h-285c-10 0 -18 7 -18 17v16c0 10 8 17 18 17h285v0zM294 149v0v-16v0c0 -10 -7 -17 -17 -17v0v0h-199c-10 0 -17 7 -17 17v16c0 10 7 17 17 17h199v0v0c10 0 17 -7 17 -17z" />
    <glyph glyph-name="uniF103" unicode="&#xf103;" horiz-adv-x="355"
d="M337 369c10 0 18 -7 18 -17v-16c0 -10 -8 -18 -18 -18h-320c-10 0 -17 8 -17 18v16c0 10 7 17 17 17h320zM337 268c10 0 18 -7 18 -17v-16c0 -10 -8 -18 -18 -18h-320c-10 0 -17 8 -17 18v16c0 10 7 17 17 17h320zM337 167c10 0 18 -8 18 -18v-16c0 -10 -8 -17 -18 -17
h-320c-10 0 -17 7 -17 17v16c0 10 7 18 17 18h320zM337 66c10 0 18 -8 18 -18v-16c0 -10 -8 -17 -18 -17h-320c-10 0 -17 7 -17 17v16c0 10 7 18 17 18h320z" />
    <glyph glyph-name="uniF104" unicode="&#xf104;" horiz-adv-x="355"
d="M337 370c10 0 18 -7 18 -17v-16c0 -10 -8 -17 -18 -17h-320c-10 0 -17 7 -17 17v16c0 10 7 17 17 17h320zM17 218c-10 0 -17 7 -17 17v16c0 10 7 18 17 18h234v0c10 0 18 -8 18 -18v0v-16v0c0 -10 -8 -17 -18 -17v0h-234zM302 64c10 0 18 -7 18 -17v0v-16v0
c0 -10 -8 -17 -18 -17v0h-285c-10 0 -17 7 -17 17v16c0 10 7 17 17 17h285v0zM17 116c-10 0 -17 7 -17 17v16c0 10 7 17 17 17h199v0v0c10 0 18 -7 18 -17v0v-16v0c0 -10 -8 -17 -18 -17v0v0h-199z" />
    <glyph glyph-name="uniF105" unicode="&#xf105;" horiz-adv-x="355"
d="M337 370c10 0 18 -7 18 -17v-16c0 -10 -8 -17 -18 -17h-320c-10 0 -17 7 -17 17v16c0 10 7 17 17 17h320zM337 268c10 0 18 -7 18 -17v0v-16v0c0 -10 -8 -17 -18 -17v0h-233c-10 0 -18 7 -18 17v16c0 10 8 17 18 17h233v0zM337 64c10 0 18 -7 18 -17v0v-16v0
c0 -10 -8 -17 -18 -17v0h-285c-10 0 -17 7 -17 17v16c0 10 7 17 17 17h285v0v0zM355 149v0v-16v0c0 -10 -8 -17 -18 -17v0v0h-199c-10 0 -17 7 -17 17v16c0 10 7 17 17 17h199v0v0c10 0 18 -7 18 -17z" />
    <glyph glyph-name="uniF106" unicode="&#xf106;" horiz-adv-x="393"
d="M392 104c1 -1 1 -3 1 -4c0 -4 -4 -8 -8 -8h-21c-33 -58 -95 -97 -167 -97s-134 39 -167 97h-22c-4 0 -8 4 -8 8c0 2 1 4 2 5l47 82c1 3 4 5 7 5s6 -2 7 -4v0l48 -84v0c1 -1 2 -3 2 -4c0 -4 -5 -8 -9 -8h-12c20 -22 48 -38 79 -44v150h-46c-4 0 -8 4 -8 8v0v35v0
c0 4 4 8 8 8v0h46v27c-20 10 -34 30 -34 54c0 33 27 59 60 59s59 -26 59 -59c0 -24 -14 -44 -34 -54v-27h47v0c4 0 8 -4 8 -8v0v-35v0c0 -4 -4 -8 -8 -8h-47v-150c31 6 59 22 79 44h-12c-4 0 -8 4 -8 8c0 2 1 4 2 5l46 82c1 3 5 5 8 5s6 -2 7 -4v0l48 -84v0zM197 296
c18 0 33 16 33 34s-15 33 -33 33s-34 -15 -34 -33s16 -34 34 -34z" />
    <glyph glyph-name="uniF107" unicode="&#xf107;" horiz-adv-x="388"
d="M360 98c17 -9 28 -27 28 -47c0 -29 -24 -54 -53 -54c-22 0 -42 14 -50 34h-182c-8 -20 -28 -34 -50 -34c-29 0 -53 25 -53 54c0 20 11 38 28 47v188c-17 9 -28 27 -28 47c0 29 24 54 53 54c18 0 34 -10 44 -24h194c10 14 26 24 44 24c29 0 53 -25 53 -54
c0 -20 -11 -38 -28 -47v-188zM79 98c7 -4 13 -10 18 -16h195c5 6 10 12 17 16v188c-11 6 -18 15 -23 26h-184c-5 -11 -12 -20 -23 -26v-188z" />
    <glyph glyph-name="uniF108" unicode="&#xf108;" horiz-adv-x="401"
d="M401 279v0v-247v0c0 -12 -9 -21 -21 -21h-1h-357h-1c-12 0 -21 9 -21 21v0v247v1c0 5 2 10 5 14v0l42 72v0c2 4 6 7 11 7v0v0h284v0h1c6 0 12 -4 13 -10l40 -69v-1c3 -4 5 -8 5 -13v-1zM269 154c1 2 2 4 1 6s-4 3 -6 3h-30v81c0 3 -3 6 -6 6h-55c-3 0 -6 -3 -6 -6v-81
h-30c-2 0 -5 -1 -6 -3s0 -4 1 -6l64 -90c1 -2 3 -2 5 -2v0c2 0 4 0 5 2zM39 301h323l-27 47h-269z" />
    <glyph glyph-name="uniF109" unicode="&#xf109;" horiz-adv-x="292"
d="M2 188c-3 4 -3 9 -1 13s7 7 12 7h62v167c0 7 6 13 13 13h116c7 0 12 -6 12 -13v-167h63c5 0 9 -3 11 -7s2 -9 -1 -13l-132 -187c-2 -3 -7 -5 -11 -5v0c-4 0 -8 2 -10 5z" />
    <glyph glyph-name="uniF10A" unicode="&#xf10a;" horiz-adv-x="393"
d="M192 335c4 3 9 3 13 1s7 -6 7 -11v-62h168c7 0 13 -6 13 -13v-116c0 -7 -6 -13 -13 -13h-168v-62c0 -5 -3 -9 -7 -11s-9 -2 -13 1l-187 132c-3 2 -5 7 -5 11v0c0 4 2 8 5 10z" />
    <glyph glyph-name="uniF10B" unicode="&#xf10b;" horiz-adv-x="393"
d="M201 49c-4 -3 -10 -3 -14 -1s-7 6 -7 11v62h-167c-7 0 -13 6 -13 13v116c0 7 6 13 13 13h167v62c0 5 3 9 7 11s10 2 14 -1l186 -132c3 -2 6 -7 6 -11v0c0 -4 -3 -8 -6 -10z" />
    <glyph glyph-name="uniF10C" unicode="&#xf10c;" horiz-adv-x="292"
d="M289 196c3 -4 3 -9 1 -13s-6 -7 -11 -7h-63v-167c0 -7 -5 -13 -12 -13h-116c-7 0 -13 6 -13 13v167h-62c-5 0 -10 3 -12 7s-2 9 1 13l133 187c2 3 6 5 10 5v0c4 0 9 -2 11 -5z" />
    <glyph glyph-name="uniF10D" unicode="&#xf10d;" horiz-adv-x="512"
d="M201 -5c-1 -3 -4 -6 -7 -7s-7 0 -9 2l-30 31l-83 -82c-4 -4 -9 -4 -13 0l-56 56c-4 4 -4 9 0 13l82 83l-31 30c-2 2 -3 6 -2 9s4 6 7 7l157 26c3 0 6 0 8 -2v0c2 -2 3 -5 3 -8zM311 389c1 3 4 6 7 7s7 0 9 -2l30 -31l83 82c4 4 9 4 13 0l56 -56c4 -4 4 -9 0 -13l-82 -83
l31 -30c2 -2 3 -6 2 -9s-4 -6 -7 -7l-157 -26c-3 0 -6 0 -8 2v0c-2 2 -3 5 -3 8z" />
    <glyph glyph-name="uniF10E" unicode="&#xf10e;" horiz-adv-x="512"
d="M26 104c1 3 3 6 6 7s7 0 9 -2l31 -31l83 83c4 4 8 4 12 0l57 -57c4 -4 4 -9 0 -13l-82 -82l30 -31c2 -2 4 -6 3 -9s-4 -5 -7 -6l-158 -27c-3 0 -5 1 -7 3v0c-2 2 -3 4 -3 7zM486 280c-1 -3 -3 -6 -6 -7s-7 0 -9 2l-31 31l-83 -83c-4 -4 -8 -4 -12 0l-57 57
c-4 4 -4 9 0 13l82 82l-30 31c-2 2 -4 6 -3 9s4 5 7 6l158 27c3 0 5 -1 7 -3v0c2 -2 3 -4 3 -7z" />
    <glyph glyph-name="uniF10F" unicode="&#xf10f;" horiz-adv-x="512"
d="M184 -10c-1 -3 -2 -5 -5 -6s-7 0 -9 2l-28 28l-76 -76c-3 -3 -8 -3 -11 0l-53 53c-3 3 -3 8 0 11l76 76l-28 28c-2 2 -3 6 -2 9s3 4 6 5l145 25c3 0 5 -1 7 -3v0c2 -2 2 -4 2 -7zM328 394c1 3 2 5 5 6s7 0 9 -2l28 -28l76 76c3 3 8 3 11 0l53 -53c3 -3 3 -8 0 -11
l-76 -76l28 -28c2 -2 3 -6 2 -9s-3 -4 -6 -5l-145 -25c-3 0 -5 1 -7 3v0c-2 2 -2 4 -2 7zM458 120c3 -1 5 -2 6 -5s0 -7 -2 -9l-28 -28l76 -76c3 -3 3 -8 0 -11l-53 -53c-3 -3 -8 -3 -11 0l-76 76l-28 -28c-2 -2 -6 -3 -9 -2s-4 3 -5 6l-25 145c0 3 1 5 3 7v0c2 2 4 2 7 2z
M54 264c-3 1 -5 2 -6 5s0 7 2 9l28 28l-76 76c-3 3 -3 8 0 11l53 53c3 3 8 3 11 0l76 -76l28 28c2 2 6 3 9 2s4 -3 5 -6l25 -145c0 -3 -1 -5 -3 -7v0c-2 -2 -4 -2 -7 -2z" />
    <glyph glyph-name="uniF110" unicode="&#xf110;" horiz-adv-x="512"
d="M24 90c1 3 3 6 6 7s6 0 8 -2l28 -28l76 75c3 3 9 3 12 0l52 -52c3 -3 3 -9 0 -12l-76 -75l28 -29c2 -2 3 -5 2 -8s-3 -4 -6 -5l-144 -25c-3 0 -6 0 -8 2v0c-2 2 -2 5 -2 8zM488 294c-1 -3 -3 -6 -6 -7s-6 0 -8 2l-28 28l-76 -75c-3 -3 -9 -3 -12 0l-52 52c-3 3 -3 9 0 12
l76 75l-28 29c-2 2 -3 5 -2 8s3 4 6 5l144 25c3 0 6 0 8 -2v0c2 -2 2 -5 2 -8zM358 -40c-3 1 -6 3 -7 6s0 6 2 8l28 28l-75 76c-3 3 -3 9 0 12l52 52c3 3 9 3 12 0l75 -76l29 28c2 2 5 3 8 2s4 -3 5 -6l25 -144c0 -3 0 -6 -2 -8v0c-2 -2 -5 -2 -8 -2zM154 424
c3 -1 6 -3 7 -6s0 -6 -2 -8l-28 -28l75 -76c3 -3 3 -9 0 -12l-52 -52c-3 -3 -9 -3 -12 0l-75 76l-29 -28c-2 -2 -5 -3 -8 -2s-4 3 -5 6l-25 144c0 3 0 6 2 8v0c2 2 5 2 8 2z" />
    <glyph glyph-name="uniF111" unicode="&#xf111;" horiz-adv-x="440"
d="M94 315c2 1 3 2 5 3c17 15 37 27 59 34c11 3 23 4 35 5c2 0 6 -2 7 -4s0 -6 -2 -8c-3 -3 -6 -5 -10 -6c-15 -5 -29 -9 -44 -14c-3 -1 -6 -6 -9 -8c-7 -6 -14 -10 -21 -16l-3 -3v-1c4 2 7 3 11 4c12 4 23 9 35 11c10 2 21 -1 32 -2c2 0 5 -2 7 -4c8 -6 15 -13 23 -19
c3 -2 3 -4 1 -7c-5 -7 -11 -8 -18 -4c-6 3 -10 7 -15 11c-3 2 -5 4 -9 3c-7 -1 -15 -1 -22 -2c-3 0 -5 -1 -7 -2c-10 -7 -20 -15 -30 -22c-2 -1 -3 -4 -3 -7c1 0 2 0 3 1c8 5 17 6 26 7c3 0 6 1 9 1c12 2 20 -3 29 -10c7 -5 14 -10 21 -16c4 -3 6 -8 6 -13
c0 -9 0 -18 -3 -27c0 -1 -1 -3 0 -3c6 -4 2 -9 1 -13c-3 -9 -7 -18 -10 -27c-3 -8 -9 -13 -18 -16c-21 -6 -41 -13 -62 -20c-8 -3 -17 -4 -26 -2c-17 4 -33 2 -49 -5c-7 -3 -15 -7 -23 -11c-9 13 -14 27 -17 41c-4 17 -4 35 -2 52c0 1 2 3 3 4c17 7 25 21 31 37
c7 19 9 40 21 57c13 19 23 39 40 55c8 8 16 18 23 27c3 4 5 4 8 -1s3 -11 -1 -16c-10 -13 -21 -26 -31 -39c-1 -1 -1 -2 -2 -4zM167 170c4 0 8 -1 10 3c4 9 11 16 18 22c2 2 2 3 1 5c-4 7 -6 14 -10 21c-1 2 -3 4 -5 5c-6 4 -12 8 -19 12c-2 1 -4 2 -6 1
c-5 -2 -10 -5 -15 -7c-4 -2 -9 -3 -13 -5c-11 -4 -14 -13 -17 -23c-2 -6 -1 -11 4 -16c6 -6 12 -13 17 -20c2 -2 3 -2 6 -1c10 3 19 5 29 3zM346 69c-3 -3 -7 -4 -10 -7c-15 -14 -34 -24 -53 -30c-11 -4 -23 -5 -35 -6c-7 -1 -10 7 -6 12c3 3 7 7 11 8c12 4 25 7 37 11
c5 2 9 5 13 8c8 6 16 13 24 19c1 1 2 2 2 4c-4 -2 -9 -4 -13 -6c-11 -4 -21 -9 -32 -10s-22 1 -33 2c-2 0 -5 2 -7 4c-7 5 -13 11 -20 16s-6 12 3 15c3 1 8 1 11 -1c6 -3 11 -8 17 -12c2 -1 4 -2 6 -2c8 0 15 1 22 2c3 0 7 1 10 3c9 7 19 14 28 21c2 1 2 4 3 7
c-12 -8 -26 -8 -39 -9c-9 -1 -16 1 -23 7c-9 7 -19 14 -28 21c-2 2 -4 5 -4 8c0 9 1 18 2 27c0 3 2 6 -1 9c-1 1 0 3 0 4c1 4 3 7 4 11c3 7 5 13 7 20c3 9 9 15 19 18c21 6 42 13 62 20c9 3 17 4 26 2c18 -5 35 -2 52 6c6 3 12 7 19 10c8 -9 12 -21 15 -32
c6 -20 6 -40 4 -61c0 -5 -4 -5 -7 -6c-10 -4 -17 -13 -21 -22c-5 -10 -8 -21 -11 -32c-5 -15 -10 -30 -19 -43c-7 -10 -13 -20 -20 -30c-6 -8 -13 -15 -19 -23l-21 -24c-4 -4 -5 -4 -8 1s-2 10 2 16c10 13 20 25 30 38c1 1 1 3 2 5c-1 0 -1 1 -1 1zM245 186
c3 -8 6 -16 10 -24c1 -2 2 -3 4 -4c6 -4 13 -8 19 -12c2 -1 4 -2 7 -1c8 3 15 7 23 10s14 6 17 14c2 4 3 9 4 13c1 5 1 9 -3 13c-7 7 -13 14 -19 21c-1 1 -3 1 -4 1c-11 -3 -22 -5 -33 -3c-2 0 -6 -1 -7 -3c-7 -8 -12 -17 -18 -25z" />
    <glyph glyph-name="uniF112" unicode="&#xf112;" horiz-adv-x="343"
d="M338 140c4 -3 6 -7 4 -12v0v-2v0h-1l-28 -49v0c-3 -5 -9 -6 -14 -3c-1 0 -1 0 -2 1l-87 50v-103v0v0c0 -5 -4 -9 -9 -10v0h-58v0c-6 0 -10 4 -10 10v3v100l-89 -51v0v0c-4 -3 -10 -2 -13 2v0l-30 51v0c-3 5 -1 11 4 14c1 0 1 1 2 1l88 50l-90 51v1v0v0v0c-5 3 -7 8 -4 13
v0l29 49v0v1c3 5 9 7 14 4v0l89 -52v103v0c0 5 5 10 10 10v0h57v0v0c6 0 10 -4 10 -10v0v-103l90 51v0c5 3 10 2 13 -3v0l28 -49v0l1 -1c3 -5 1 -11 -4 -14v0l-89 -51l89 -51v0v-1z" />
    <glyph glyph-name="uniF113" unicode="&#xf113;" horiz-adv-x="384"
d="M384 192v-9v0c0 -76 -46 -102 -85 -102c-27 0 -75 22 -78 39v3c-16 -22 -41 -36 -65 -36c-44 0 -70 31 -70 75c0 60 50 111 102 111c27 0 47 -13 56 -30l4 18v0c1 3 4 5 7 5h37c4 0 7 -2 7 -6l-1 -2h1l-22 -101c0 -2 -1 -8 -1 -11c0 -14 8 -21 17 -21c18 0 39 29 39 80
c-7 72 -67 128 -140 128c-78 0 -141 -63 -141 -141s63 -141 141 -141c19 0 37 3 53 10v0c1 0 2 1 3 1c2 0 4 -1 5 -2v0l34 -21v0c3 -1 4 -4 4 -7c0 -4 -2 -6 -5 -7c-28 -16 -60 -25 -94 -25c-106 0 -192 86 -192 192s86 192 192 192s192 -86 192 -192zM226 157l11 52
c-5 10 -16 23 -36 23c-36 0 -62 -32 -62 -65c0 -23 14 -40 37 -40c24 0 40 16 50 30z" />
    <glyph glyph-name="uniF114" unicode="&#xf114;"
d="M122 53h133l17 -45h-167zM136 98l52 138l53 -138h-105zM333 376c20 0 36 -16 36 -36v-296c0 -20 -16 -36 -36 -36h-3l-106 270v0c-2 5 -7 9 -13 9h-45c-6 0 -11 -4 -13 -9v0l-106 -270h-11c-20 0 -36 16 -36 36v296c0 20 16 36 36 36h297z" />
    <glyph glyph-name="uniF115" unicode="&#xf115;" horiz-adv-x="484"
d="M476 236c5 0 8 -4 8 -9v-62c0 -5 -3 -9 -8 -9h-40v-95v0v0c0 -5 -4 -9 -9 -9h-418c-5 0 -9 4 -9 9v0v0v262v0v0c0 5 4 9 9 9h418c5 0 9 -4 9 -9v0v0v-87h40zM385 103v177h-333v-177h333z" />
    <glyph glyph-name="uniF116" unicode="&#xf116;" horiz-adv-x="484"
d="M476 236c5 0 8 -4 8 -9v-62c0 -5 -3 -9 -8 -9h-40v-95v0v0c0 -5 -4 -9 -9 -9h-418c-5 0 -9 4 -9 9v0v0v262v0v0c0 5 4 9 9 9h418c5 0 9 -4 9 -9v0v0v-87h40zM385 103v177h-333v-177h333zM78 128v129h281v-129h-281z" />
    <glyph glyph-name="uniF117" unicode="&#xf117;" horiz-adv-x="484"
d="M476 236c5 0 8 -4 8 -9v-62c0 -5 -3 -9 -8 -9h-40v-95v0v0c0 -5 -4 -9 -9 -9h-418c-5 0 -9 4 -9 9v0v0v262v0v0c0 5 4 9 9 9h418c5 0 9 -4 9 -9v0v0v-87h40zM385 103v177h-333v-177h333zM276 255l-50 -126h-149v126h199z" />
    <glyph glyph-name="uniF118" unicode="&#xf118;" horiz-adv-x="384"
d="M191 253c12 -3 50 -8 44 -33c-6 -24 -43 -12 -55 -9zM175 190c14 -4 60 -11 53 -38c-7 -26 -50 -13 -64 -9zM238 378c103 -26 166 -129 140 -232s-129 -166 -232 -140s-166 129 -140 232s129 166 232 140zM277 219c4 26 -16 40 -43 49l9 34l-21 6l-8 -34
c-6 1 -11 3 -17 4l8 34l-21 5l-9 -34c-5 1 -9 2 -13 3v0l-29 7l-6 -22l16 -4c9 -2 9 -9 9 -13l-9 -39c1 0 1 -1 2 -1c-1 0 -1 1 -2 1l-14 -55c-1 -3 -4 -6 -10 -5l-15 3l-11 -24l28 -6c5 -1 10 -3 15 -4l-9 -35l21 -6l9 35c6 -2 12 -3 17 -4l-9 -35l21 -5l9 35
c36 -7 63 -4 74 28c9 26 0 41 -19 51c14 3 24 12 27 31z" />
    <glyph glyph-name="uniF119" unicode="&#xf119;" horiz-adv-x="260"
d="M213 205c31 -7 51 -26 47 -67c-5 -51 -44 -65 -98 -68v-47v0v0c0 -4 -2 -7 -6 -7v0v0v0h-20v0v0c-4 0 -6 3 -6 7v0v46c-8 0 -17 1 -26 1v-47v0v0c0 -4 -2 -7 -6 -7v0v0v0h-20v0v0c-4 0 -6 3 -6 7v0v47h-23h-42v0c-3 0 -6 4 -6 7v0v0l5 27h1c1 3 3 5 6 5v0v0h23
c9 0 12 7 13 11v85v0v61c-1 7 -6 14 -19 14h-24v0v0c-4 0 -6 2 -6 6v22c0 4 2 6 6 6v0h45v0h21v47v0v0c0 4 2 7 6 7v0v0v0v0h20v0v0c4 0 6 -3 6 -7v0v-46c9 0 17 1 26 1v45v0v0c0 4 2 7 6 7v0v0v0v0h20v0v0c4 0 6 -3 6 -7v0v-47c42 -4 75 -16 79 -54c3 -28 -9 -45 -28 -55z
M105 277v-64c18 0 76 -5 76 32c0 38 -58 32 -76 32zM105 109c22 0 91 -5 91 35c0 42 -69 36 -91 36v-71z" />
    <glyph glyph-name="uniF11A" unicode="&#xf11a;" horiz-adv-x="342"
d="M91 347c0 24 12 36 36 36s37 -12 37 -36s-13 -37 -37 -37s-36 13 -36 37zM341 15c1 -1 1 -2 1 -3c0 -4 -2 -6 -6 -6c-2 0 -4 1 -5 3v0v0v1l-107 184h-3c-3 0 -6 1 -8 2v0v0v1h-1l-35 20v0v0v0v0l-23 23v-76l45 -44v0l49 -85c3 -4 4 -8 4 -13c0 -6 -2 -11 -6 -15
s-9 -6 -15 -6c-8 0 -15 4 -19 11v0l-47 81l-37 37l-41 -72v0l-49 -49c-4 -5 -10 -8 -17 -8c-6 0 -11 2 -15 6s-6 9 -6 15s2 12 7 16v0l45 45l36 62v0v96l-19 -18v-52v0c0 -4 -1 -8 -4 -11s-7 -4 -11 -4c-3 0 -6 1 -8 2s-5 4 -6 6s-2 4 -2 7v0v62h1h-1c0 1 1 2 2 3v0l54 55
c7 8 17 11 27 11c12 0 21 -4 28 -13l47 -47l31 -18c6 -3 9 -7 9 -14c0 -3 0 -6 -2 -9l107 -186v0z" />
    <glyph glyph-name="uniF11B" unicode="&#xf11b;" horiz-adv-x="239"
d="M231 120c5 -4 8 -10 8 -17c0 -5 -3 -10 -6 -14v0l-1 -1v0l-102 -102v0c-4 -4 -10 -7 -16 -7c-12 0 -21 9 -21 21v0v0v1v0v124l-55 -55c-4 -5 -9 -7 -16 -7c-12 0 -22 10 -22 22c0 6 2 11 6 15v0v0v0l87 86v11l-86 86c-4 4 -7 9 -7 15c0 12 10 22 22 22c6 0 12 -3 16 -7
l55 -55v119c-1 2 -1 4 -1 6c0 12 9 22 21 22c7 0 13 -3 17 -8l101 -101c5 -4 8 -9 8 -16c0 -5 -3 -10 -6 -14v0v0c-1 -1 -1 -2 -2 -3l-72 -71zM186 103l-50 51v-101zM136 230l50 50l-50 50v-100z" />
    <glyph glyph-name="uniF11C" unicode="&#xf11c;" horiz-adv-x="242"
d="M186 197c31 -5 56 -35 56 -71c0 -44 -29 -79 -85 -79h-144c-7 0 -13 6 -13 13v264c0 7 6 13 13 13h140c55 0 83 -35 83 -74c0 -36 -23 -60 -50 -66zM62 283v-61h77c21 0 34 11 34 30c0 18 -13 31 -34 31h-77zM142 101c23 0 37 12 37 33c0 18 -13 33 -37 33h-80v-66h80z
" />
    <glyph glyph-name="uniF11D" unicode="&#xf11d;" horiz-adv-x="328"
d="M328 334v-327v0c0 -5 -3 -8 -8 -8v0v0h-312v0c-4 0 -8 4 -8 8v0v0v0v1v65v303v1c0 5 3 8 8 8h153v-66v-84v-29c0 -2 2 -4 4 -4c1 0 2 0 3 1v0l29 30h1c1 1 1 1 2 1s2 0 3 -1v0l29 -29c1 -1 2 -2 3 -2c2 0 4 2 4 4v29v84v66h29v0h1c5 0 8 -3 8 -8v-319v0c0 -5 -3 -8 -8 -8
h-1v0h-242v-19c1 -4 4 -7 8 -7h261v0c5 0 8 4 8 9v0v309h17v0c4 0 8 -4 8 -8v0z" />
    <glyph glyph-name="uniF11E" unicode="&#xf11e;" horiz-adv-x="328"
d="M328 334v-327v0c0 -5 -3 -8 -8 -8v0v0h-312v0c-4 0 -8 4 -8 8v0v0v0v1v65v303v1c0 5 3 8 8 8h260v0h1c5 0 8 -3 8 -8v-319v0c0 -5 -3 -8 -8 -8h-1v0h-242v-19c1 -4 4 -7 8 -7h261v0c5 0 8 4 8 9v0v309h17v0c4 0 8 -4 8 -8v0zM25 326v0v-64c0 -5 4 -8 9 -8h209v0
c5 0 8 3 8 8v0v64v0c0 5 -3 8 -8 8h-209c-5 0 -9 -3 -9 -8z" />
    <glyph glyph-name="uniF11F" unicode="&#xf11f;" horiz-adv-x="218"
d="M203 381c9 0 15 -7 15 -16v-34v-235v-82c0 -6 -5 -11 -11 -11c-3 0 -7 2 -9 4l-81 82v0c-2 2 -5 3 -8 3s-5 -1 -7 -3v0l-83 -83v0c-2 -2 -5 -3 -8 -3c-6 0 -11 5 -11 11v82v235v34c0 9 6 16 15 16h188z" />
    <glyph glyph-name="uniF120" unicode="&#xf120;" horiz-adv-x="265"
d="M0 325c0 24 12 36 36 36s35 -12 35 -36s-11 -35 -35 -35s-36 11 -36 35zM194 325c0 24 11 36 35 36s36 -12 36 -36s-12 -35 -36 -35s-35 11 -35 35zM0 192c0 24 12 36 36 36s35 -12 35 -36s-11 -36 -35 -36s-36 12 -36 36zM194 192c0 24 11 36 35 36s36 -12 36 -36
s-12 -36 -36 -36s-35 12 -35 36zM0 59c0 24 12 36 36 36s35 -12 35 -36s-11 -36 -35 -36s-36 12 -36 36zM194 59c0 24 11 36 35 36s36 -12 36 -36s-12 -36 -36 -36s-35 12 -35 36z" />
    <glyph glyph-name="uniF121" unicode="&#xf121;" horiz-adv-x="395"
d="M395 192c0 -5 -3 -9 -6 -11v0l-48 -28l27 -46v0c2 -4 1 -9 -1 -13s-6 -6 -10 -6v0h-54v-55h-1c0 -4 -2 -8 -6 -10s-9 -3 -13 -1v0l-47 27l-27 -47v0c-2 -3 -6 -6 -11 -6s-9 3 -11 6v0l-27 46l-49 -28v0c-4 -2 -8 -1 -12 1s-7 6 -7 10v0v55h-55v0c-4 0 -8 3 -10 7
s-3 8 -1 12v0l27 48l-47 28v0c-3 2 -6 6 -6 11s3 9 6 11v0l48 28l-27 46v0c-2 4 -1 9 1 13s6 6 10 6v0h54v55v0c0 4 3 8 7 10s8 3 12 1v0l48 -27l27 47v0c2 3 6 6 11 6s9 -3 11 -6v0l27 -46l49 28v0c4 2 8 1 12 -1s7 -6 7 -10v0v-55h55v0c4 0 8 -3 10 -7s3 -8 1 -12v-1
l-27 -47l47 -28v0c3 -2 6 -6 6 -11zM165 134l12 7l-34 59l-12 -7l21 -37l-49 21l-13 -8l34 -59l13 8l-22 38zM189 148l42 24l-7 11l-29 -17l-8 13l29 17l-6 11l-29 -17l-7 13l29 17l-6 11l-42 -24zM286 204l13 7l-17 69l-14 -8l14 -49l-36 36l-9 -5l13 -49l-35 36l-14 -8
l51 -49l13 8l-13 46z" />
    <glyph glyph-name="uniF122" unicode="&#xf122;" horiz-adv-x="395"
d="M167 163l-5 31l24 -20zM395 192c0 -5 -3 -9 -6 -11v0l-48 -28l27 -46v0c2 -4 1 -9 -1 -13s-6 -6 -10 -6v0h-54v-55h-1c0 -4 -2 -8 -6 -10s-9 -3 -13 -1v0l-47 27l-27 -47v0c-2 -3 -6 -6 -11 -6s-9 3 -11 6v0l-27 46l-49 -28v0c-4 -2 -8 -1 -12 1s-7 6 -7 10v0v55h-55v0
c-4 0 -8 3 -10 7s-3 8 -1 12v0l27 48l-47 28v0c-3 2 -6 6 -6 11s3 9 6 11v0l48 28l-27 46v0c-2 4 -1 9 1 13s6 6 10 6v0h54v55v0c0 4 3 8 7 10s8 3 12 1v0l48 -27l27 47v0c2 3 6 6 11 6s9 -3 11 -6v0l27 -46l49 28v0c4 2 8 1 12 -1s7 -6 7 -10v0v-55h55v0c4 0 8 -3 10 -7
s3 -8 1 -12v-1l-27 -47l47 -28v0c3 -2 6 -6 6 -11zM134 114c16 9 18 22 12 33c-13 22 -43 -4 -48 5c-2 4 0 8 5 11c6 3 14 5 21 3l1 14c-9 2 -18 0 -27 -5c-14 -8 -18 -21 -12 -31c13 -22 42 4 48 -6c2 -3 1 -8 -6 -12c-8 -5 -17 -5 -24 -3l-1 -14c9 -2 20 -2 31 5zM205 157
l14 8l-57 46l-15 -9l11 -72l14 8l-2 12l25 15zM224 168l38 22l-7 11l-25 -15l-27 48l-13 -7zM270 195l42 24l-6 11l-29 -17l-8 13l28 17l-6 11l-29 -17l-7 13l29 17l-6 11l-42 -24z" />
    <glyph glyph-name="uniF123" unicode="&#xf123;" horiz-adv-x="395"
d="M395 192c0 -5 -3 -9 -6 -11v0l-48 -28l27 -46v0c2 -4 1 -9 -1 -13s-6 -6 -10 -6v0h-54v-55h-1c0 -4 -2 -8 -6 -10s-9 -3 -13 -1v0l-47 27l-27 -47v0c-2 -3 -6 -6 -11 -6s-9 3 -11 6v0l-27 46l-49 -28v0c-4 -2 -8 -1 -12 1s-7 6 -7 10v0v55h-55v0c-4 0 -8 3 -10 7
s-3 8 -1 12v0l27 48l-47 28v0c-3 2 -6 6 -6 11s3 9 6 11v0l48 28l-27 46v0c-2 4 -1 9 1 13s6 6 10 6v0h54v55v0c0 4 3 8 7 10s8 3 12 1v0l48 -27l27 47v0c2 3 6 6 11 6s9 -3 11 -6v0l27 -46l49 28v0c4 2 8 1 12 -1s7 -6 7 -10v0v-55h55v0c4 0 8 -3 10 -7s3 -8 1 -12v-1
l-27 -47l47 -28v0c3 -2 6 -6 6 -11z" />
    <glyph glyph-name="uniF124" unicode="&#xf124;" horiz-adv-x="326"
d="M320 246c4 0 6 -3 6 -7v-225c0 -4 -2 -6 -6 -6h-314c-4 0 -6 2 -6 6v225c0 4 2 7 6 7h314zM109 55c34 0 56 18 56 44c0 18 -13 26 -25 31c14 7 21 17 21 31c0 18 -18 30 -44 30c-15 0 -27 -2 -37 -7c-1 -1 -2 -2 -2 -3l3 -22c0 -1 1 -2 2 -2h3c8 4 16 6 24 6
c15 0 15 -6 15 -9c0 -5 -3 -11 -24 -13c-2 0 -3 -1 -3 -3v-22c0 -2 1 -3 3 -3c25 -1 30 -7 30 -16c0 -8 -9 -13 -20 -13s-19 1 -29 5c-1 0 -2 1 -3 0s-1 -1 -1 -2l-3 -22c0 -1 1 -3 2 -4c9 -4 21 -6 32 -6zM245 61v0v125c0 2 -1 3 -3 3h-13h-2l-38 -19c-1 -1 -2 -2 -2 -3
l3 -22c0 -1 1 -3 2 -3c1 -1 2 0 3 0l17 7v-88c0 -2 1 -4 3 -4h27c2 0 3 2 3 4zM320 347c4 0 6 -2 6 -6v-66c0 -4 -2 -7 -6 -7h-314c-4 0 -6 3 -6 7v66c0 4 2 6 6 6h34v-16c0 -17 9 -34 36 -34s36 17 36 34v16h102v-16c0 -17 9 -34 36 -34s36 17 36 34v16h34zM76 318
c-11 0 -15 4 -15 13v16v16c0 9 4 13 15 13s15 -4 15 -13v-16v-16c0 -9 -4 -13 -15 -13zM250 318c-11 0 -15 4 -15 13v16v16c0 9 4 13 15 13s15 -4 15 -13v-16v-16c0 -9 -4 -13 -15 -13z" />
    <glyph glyph-name="uniF125" unicode="&#xf125;" horiz-adv-x="415"
d="M159 175c0 32 17 49 49 49s48 -17 48 -49s-16 -48 -48 -48s-49 16 -49 48zM396 324c5 0 9 -1 13 -5s6 -9 6 -14v-259c0 -5 -2 -10 -6 -14s-8 -5 -13 -5v-1h-377v1c-5 0 -9 1 -13 5s-6 9 -6 14v259c0 5 2 10 6 14s8 5 13 5v0h85v15c0 5 2 9 6 13s8 6 13 6h168
c5 0 10 -2 14 -6s5 -8 5 -13v-15h86v0zM209 77c18 0 34 4 49 13s27 21 36 36s13 31 13 49c0 27 -10 51 -29 70s-42 29 -69 29s-51 -10 -70 -29s-29 -43 -29 -70s10 -50 29 -69s43 -29 70 -29zM389 248v0v51h-75v-51h75z" />
    <glyph glyph-name="uniF126" unicode="&#xf126;" horiz-adv-x="397"
d="M393 293c5 -5 5 -13 0 -18l-250 -250c-2 -2 -6 -4 -9 -4v1l-1 -1c-3 0 -6 2 -8 4l-121 121c-2 2 -4 6 -4 9s2 7 4 9l66 66c5 5 12 5 17 0l47 -47l176 176c2 2 5 4 8 4s7 -2 9 -4z" />
    <glyph glyph-name="uniF127" unicode="&#xf127;" horiz-adv-x="381"
d="M379 323c3 -3 3 -8 0 -11l-209 -209c-2 -2 -4 -3 -6 -3v0v0c-2 0 -4 1 -6 3l-81 80c-2 2 -3 4 -3 6s1 4 3 6l44 44c3 3 9 3 12 0l31 -31l159 160c2 2 4 2 6 2s4 0 6 -2zM277 173l51 52v-185v0c0 -14 -12 -26 -26 -26v0h-1v0v0h-275v0v0v0v0c-14 0 -26 12 -26 26v0v276v0
c0 14 12 26 26 26h1v0h234l-51 -51h-159v-226h226v108z" />
    <glyph glyph-name="uniF128" unicode="&#xf128;" horiz-adv-x="315"
d="M315 360v0v-362v0v0c0 -15 -12 -27 -27 -27h-1h-259v0h-1c-15 0 -27 12 -27 27v0v0v362v0v0c0 15 12 27 27 27v0h75v17v1c0 5 3 8 8 8v0v0h95v0c5 0 8 -3 8 -8v0v0v-18h75v0c15 0 27 -12 27 -27v0v0zM264 22v0v314h-25v-16v0c0 -5 -5 -9 -10 -9h-143v0v0
c-5 0 -10 4 -10 9v1v15h-25v-314h213zM102 237v0v0v-13v0v0c0 -3 -3 -6 -6 -6h-1v0h-12v0c-3 0 -7 3 -7 6v0v0v13c0 3 4 7 7 7h12v-1l1 1c3 0 6 -4 6 -7zM239 237v0v0v-13v0v0c0 -3 -4 -6 -7 -6h-98v0c-3 0 -7 3 -7 6v0v0v13c0 3 4 7 7 7h98v0c3 0 7 -4 7 -7zM102 186v0v0
v-13v0v0c0 -3 -3 -6 -6 -6h-1v0h-12v0c-3 0 -7 3 -7 6v0v0v13c0 3 4 7 7 7h12v-1l1 1c3 0 6 -4 6 -7zM239 186v0v0v-13v0v0c0 -3 -4 -6 -7 -6h-98v0c-3 0 -7 3 -7 6v0v0v13c0 3 4 7 7 7h98v0c3 0 7 -4 7 -7zM102 135v0v0v-13v0v0c0 -3 -3 -6 -6 -6h-1v0h-12v0
c-3 0 -7 3 -7 6v0v0v13c0 3 4 6 7 6h12v0h1c3 0 6 -3 6 -6zM239 135v0v0v-13v0v0c0 -3 -4 -6 -7 -6h-98v0c-3 0 -7 3 -7 6v0v0v13c0 3 4 6 7 6h98v0c3 0 7 -3 7 -6z" />
    <glyph glyph-name="uniF129" unicode="&#xf129;" horiz-adv-x="392"
d="M391 228c2 -2 2 -7 0 -9l-116 -116v0v0l-59 -16v0c-2 -1 -5 0 -7 2s-2 4 -1 6v0l16 59v0v0l115 116c2 2 7 2 9 0zM227 107l35 9l-25 26zM309 73c3 0 6 -3 6 -6v0v0v-69v0v0c0 -15 -12 -27 -27 -27h-1h-259v0h-1c-15 0 -27 12 -27 27v0v0v362v0v0c0 15 12 27 27 27v0h75
v17v1c0 5 3 8 8 8v0v0h95v0c4 0 8 -3 8 -8v0v0v-18h75v0c15 0 27 -12 27 -27v0v0v-68v0c0 -3 -3 -7 -6 -7v0h-39c-3 0 -6 4 -6 7v0v44h-25v-16v0c0 -5 -5 -9 -10 -9h-143v0v0c-5 0 -10 4 -10 9v1v15h-25v-314h213v45v0c0 3 3 6 6 6v0v0h39v0z" />
    <glyph glyph-name="uniF12A" unicode="&#xf12a;" horiz-adv-x="315"
d="M315 360v0v-362v0v0c0 -15 -12 -27 -27 -27h-1h-259v0h-1c-15 0 -27 12 -27 27v0v0v362v0v0c0 15 12 27 27 27v0h75v17v1c0 5 3 8 8 8v0v0h95v0c5 0 8 -3 8 -8v0v0v-18h75v0c15 0 27 -12 27 -27v0v0zM264 22v0v314h-25v-16v0c0 -5 -5 -9 -10 -9h-143v0v0
c-5 0 -10 4 -10 9v1v15h-25v-314h213z" />
    <glyph glyph-name="uniF12B" unicode="&#xf12b;" horiz-adv-x="384"
d="M192 333c-78 0 -141 -63 -141 -141s63 -141 141 -141s141 63 141 141s-63 141 -141 141zM192 384v0c106 0 192 -86 192 -192s-86 -192 -192 -192s-192 86 -192 192s86 192 192 192zM290 263c4 -4 4 -10 0 -14l-91 -91c-2 -2 -4 -3 -7 -3v0c-3 0 -5 1 -7 3l-62 62
c-2 2 -3 4 -3 7s1 6 3 8l20 20c4 4 10 4 14 0l35 -36l64 64c4 4 10 4 14 0z" />
    <glyph glyph-name="uniF12C" unicode="&#xf12c;" horiz-adv-x="342"
d="M333 300c5 -1 9 -6 9 -11v-94v-6v-94c0 -5 -4 -10 -9 -11l-160 -32h-4l-160 32c-5 1 -9 6 -9 11v94v6v94c0 5 4 10 9 11l160 32h4zM149 150c1 2 1 5 0 7s-3 4 -5 5l-19 8c-2 1 -4 1 -6 0s-4 -3 -5 -5c-2 -4 -7 -14 -17 -14c-14 0 -24 17 -24 41s10 41 24 41
c9 0 14 -7 17 -13c2 -4 8 -6 12 -4l18 8c2 1 4 3 5 5s0 4 -1 6c-11 23 -28 35 -51 35c-38 0 -64 -31 -64 -78s26 -78 64 -78c23 0 41 12 52 36zM308 150c1 2 1 5 0 7s-3 4 -5 5l-18 8c-2 1 -5 1 -7 0s-4 -3 -5 -5c-2 -4 -6 -14 -16 -14c-14 0 -25 17 -25 41s11 41 25 41
c9 0 14 -7 17 -13c2 -4 7 -6 11 -4l18 8c2 1 4 3 5 5s0 4 -1 6c-11 23 -27 35 -50 35c-38 0 -65 -31 -65 -78s27 -78 65 -78c23 0 40 12 51 36z" />
    <glyph glyph-name="uniF12D" unicode="&#xf12d;" horiz-adv-x="473"
d="M387 206c46 6 86 -35 86 -84c0 -18 -6 -35 -16 -50c-3 -4 -7 -7 -12 -7h-414c-5 0 -10 3 -13 8c-12 20 -18 42 -18 66c0 66 49 121 110 121c8 0 15 -1 23 -3c27 39 70 62 115 62c65 0 121 -47 139 -113z" />
    <glyph glyph-name="uniF12E" unicode="&#xf12e;" horiz-adv-x="470"
d="M302 166h92v-93v0c-2 -8 -9 -14 -17 -14h-225l-44 -44c-3 -5 -9 -8 -15 -8c-10 0 -17 7 -17 17v35h-59v0c-8 0 -15 6 -17 14v0v288v0c1 9 8 16 17 16v0h360c9 0 16 -7 17 -16v0v-91h-92c-5 0 -9 -4 -9 -9v0v-86v0c0 -5 4 -9 9 -9zM461 245c5 0 9 -4 9 -9v-36
c0 -5 -4 -8 -9 -8h-133c-5 0 -9 3 -9 8v36c0 5 4 9 9 9h133z" />
    <glyph glyph-name="uniF12F" unicode="&#xf12f;" horiz-adv-x="394"
d="M394 361v0v-288v0c-2 -8 -9 -14 -17 -14h-225l-44 -44c-3 -5 -9 -8 -15 -8c-10 0 -17 7 -17 17v35h-59v0c-8 0 -15 6 -17 14v0v288v0c1 9 8 16 17 16v0h360c9 0 16 -7 17 -16zM87 189c14 0 26 12 26 26s-10 24 -23 24c-3 0 -5 0 -6 -1c3 12 13 25 24 31v0h1v0
c1 1 2 2 2 3s-1 2 -2 3v0l-14 9v0c-1 0 -1 1 -2 1s-1 -1 -2 -1v0c-21 -15 -34 -36 -34 -61c0 -22 14 -34 30 -34zM154 189c14 0 27 12 27 26s-10 24 -23 24c-3 0 -6 0 -7 -1c3 12 14 25 25 31v0v0v0c1 1 2 2 2 3s0 2 -1 3v0l-14 9v0c-1 0 -1 1 -2 1s-1 -1 -2 -1v0
c-21 -15 -34 -36 -34 -61c0 -22 13 -34 29 -34zM235 152c21 15 35 37 35 62c0 22 -14 34 -30 34c-14 0 -26 -13 -26 -27s9 -24 22 -24c3 0 6 0 7 1c-3 -12 -14 -25 -25 -31v0v0v0c-1 -1 -2 -2 -2 -3s1 -2 2 -3h-1l14 -9v0c1 0 2 -1 3 -1s0 1 1 1v0zM303 152
c21 15 34 37 34 62c0 22 -13 34 -29 34c-14 0 -27 -13 -27 -27s10 -24 23 -24c3 0 6 0 7 1c-3 -12 -14 -25 -25 -31v0v0v0c-1 -1 -2 -2 -2 -3s0 -2 1 -3v0l14 -9v0c1 0 1 -1 2 -1s1 1 2 1v0z" />
    <glyph glyph-name="uniF130" unicode="&#xf130;" horiz-adv-x="394"
d="M394 361v0v-288v0c-2 -8 -9 -14 -17 -14h-225l-44 -44c-3 -5 -9 -8 -15 -8c-10 0 -17 7 -17 17v35h-59v0c-8 0 -15 6 -17 14v0v288v0c1 9 8 16 17 16v0h360c9 0 16 -7 17 -16zM305 155v124l-65 -30v28c0 7 -6 12 -13 12h-110c-7 0 -12 -5 -12 -12v-120c0 -7 5 -12 12 -12
h110c7 0 13 5 13 12v29z" />
    <glyph glyph-name="uniF131" unicode="&#xf131;" horiz-adv-x="394"
d="M394 361v0v-288v0c-2 -8 -9 -14 -17 -14h-225l-44 -44c-3 -5 -9 -8 -15 -8c-10 0 -17 7 -17 17v35h-59v0c-8 0 -15 6 -17 14v0v288v0c1 9 8 16 17 16v0h360c9 0 16 -7 17 -16z" />
    <glyph glyph-name="uniF132" unicode="&#xf132;" horiz-adv-x="461"
d="M461 357v0v-217v0c-1 -6 -7 -11 -13 -11v0h-44v-26c0 -7 -6 -13 -13 -13c-4 0 -9 3 -11 6l-33 33h-57v150v0c-1 6 -5 10 -11 10h-115v68v0c1 7 6 11 13 11h271v0c7 0 12 -5 13 -11zM253 264c6 0 11 -5 12 -11v0v-193h-1c-1 -5 -5 -10 -11 -10h-151l-30 -29
c-2 -3 -5 -5 -9 -5c-6 0 -12 5 -12 11v23h-40v0c-5 0 -10 5 -11 10v0v193v0c1 6 5 11 11 11v0h242z" />
    <glyph glyph-name="uniF133" unicode="&#xf133;" horiz-adv-x="384"
d="M192 384c106 0 192 -86 192 -192s-86 -192 -192 -192s-192 86 -192 192s86 192 192 192zM192 51c78 0 141 63 141 141s-63 141 -141 141s-141 -63 -141 -141s63 -141 141 -141zM267 281c4 2 9 1 12 -2s4 -8 2 -12l-60 -100l-3 -3l-101 -61c-2 -1 -3 -1 -5 -1s-5 1 -7 3v0
c-3 3 -4 8 -2 12l61 101l3 3z" />
    <glyph glyph-name="uniF134" unicode="&#xf134;" horiz-adv-x="384"
d="M192 384c106 0 192 -86 192 -192s-86 -192 -192 -192s-192 86 -192 192s86 192 192 192zM193 333v-282c78 0 140 63 140 141s-62 141 -140 141z" />
    <glyph glyph-name="uniF135" unicode="&#xf135;" horiz-adv-x="378"
d="M378 314v-1v0v-37h-378v36v2c0 8 6 13 14 13h1h349h1c8 0 13 -5 13 -13zM0 70v155h378v-155v0c0 -7 -6 -13 -13 -13v0h-350v0h-1c-8 0 -14 5 -14 13v0v0z" />
    <glyph glyph-name="uniF136" unicode="&#xf136;" horiz-adv-x="419"
d="M405 84c8 0 14 -6 14 -14v-23c0 -8 -6 -14 -14 -14v0h-37v-36c0 -8 -6 -14 -14 -14h-23c-8 0 -14 6 -14 14v36h-241v0c-13 0 -25 12 -25 25v1v0v241h-37v0c-8 0 -14 6 -14 14v23c0 8 6 14 14 14v0h37v36v0c0 8 6 14 14 14h23c8 0 14 -6 14 -14v0v-36h241v0
c13 0 25 -12 25 -25v-1v0v-241h37v0zM102 84v0h215v216h-215v-216z" />
    <glyph glyph-name="uniF137" unicode="&#xf137;" horiz-adv-x="348"
d="M348 38v-19v0v0c0 -9 -6 -16 -15 -16h-317v0c-9 0 -16 7 -16 16v0v0v19v0c0 9 7 16 16 16v0h317c9 0 15 -7 15 -16v0zM44 251c1 -1 1 0 2 -1l34 -35l82 81v0c3 3 7 5 12 5s9 -2 12 -5v0l82 -81l35 35c0 1 0 2 1 2h1v0c3 2 6 4 10 4c9 0 17 -8 17 -17v-3v-145v0v0v-2v0
c-1 -8 -8 -14 -17 -14v0v-1h-282v0v0c-9 0 -15 7 -16 15h-1v150h1c0 9 7 16 16 16c4 0 8 -1 11 -4v0v0zM292 208v0h-1h1zM2 309c0 21 10 31 31 31s30 -10 30 -31s-9 -31 -30 -31s-31 10 -31 31zM283 309c0 21 10 31 31 31s31 -10 31 -31s-10 -31 -31 -31s-31 10 -31 31z
M145 350c0 21 10 31 31 31s31 -10 31 -31s-10 -31 -31 -31s-31 10 -31 31z" />
    <glyph glyph-name="uniF138" unicode="&#xf138;" horiz-adv-x="325"
d="M0 375h325l-30 -330l-132 -36l-133 36zM260 268l4 40h-102h-103l5 -40h98h6l-6 -2l-94 -40l3 -39h91h49l-3 -52l-46 -13v0v0l-44 11l-3 32v0h-41v0l5 -62l83 -25v0h1l82 25l11 123h-94v0v0z" />
    <glyph glyph-name="uniF139" unicode="&#xf139;" horiz-adv-x="422"
d="M124 323v-262v0v0c0 -12 -11 -22 -23 -22v0h-80v1c-12 0 -21 9 -21 21v0v262v0c0 12 9 22 21 22v0h80v0c12 0 22 -10 22 -22h1zM62 65c18 0 32 14 32 32s-14 32 -32 32s-32 -14 -32 -32s14 -32 32 -32zM98 180v139h-72v-139h72zM273 323v-262v0v0c0 -12 -10 -22 -22 -22
v0h-81v1c-12 0 -21 9 -21 21v0v262v0c0 12 9 22 21 22v0h81v0c12 0 22 -10 22 -22v0zM211 65c18 0 32 14 32 32s-14 32 -32 32s-32 -14 -32 -32s14 -32 32 -32zM247 180v0v139h-72v-139h72zM422 323v-262v0v0c0 -12 -10 -22 -22 -22v0h-81v1c-12 0 -21 9 -21 21v0v262v0
c0 12 9 22 21 22v0h81v0c12 0 22 -10 22 -22v0zM360 65c18 0 32 14 32 32s-14 32 -32 32s-32 -14 -32 -32s14 -32 32 -32zM396 180v139h-72v-139h72z" />
    <glyph glyph-name="uniF13A" unicode="&#xf13a;" horiz-adv-x="348"
d="M348 329v0v-274v0c0 -20 -17 -37 -37 -37v0h-274v0c-20 0 -37 17 -37 37v0v274v0c0 20 17 37 37 37v0h274v0c20 -1 37 -17 37 -37zM87 71c20 0 36 16 36 36s-16 36 -36 36s-36 -16 -36 -36s16 -36 36 -36zM87 243c20 0 36 16 36 36s-16 36 -36 36s-36 -16 -36 -36
s16 -36 36 -36zM174 156c20 0 36 16 36 36s-16 36 -36 36s-36 -16 -36 -36s16 -36 36 -36zM261 69c20 0 36 16 36 36s-16 36 -36 36s-36 -16 -36 -36s16 -36 36 -36zM261 243c20 0 36 16 36 36s-16 36 -36 36s-36 -16 -36 -36s16 -36 36 -36z" />
    <glyph glyph-name="uniF13B" unicode="&#xf13b;" horiz-adv-x="348"
d="M348 329v0v-274v0c0 -20 -17 -37 -37 -37v0h-274v0c-20 0 -37 17 -37 37v0v274v0c0 20 17 37 37 37v0h274v0c20 -1 37 -17 37 -37zM87 71c20 0 36 16 36 36s-16 36 -36 36s-36 -16 -36 -36s16 -36 36 -36zM87 243c20 0 36 16 36 36s-16 36 -36 36s-36 -16 -36 -36
s16 -36 36 -36zM261 69c20 0 36 16 36 36s-16 36 -36 36s-36 -16 -36 -36s16 -36 36 -36zM261 243c20 0 36 16 36 36s-16 36 -36 36s-36 -16 -36 -36s16 -36 36 -36z" />
    <glyph glyph-name="uniF13C" unicode="&#xf13c;" horiz-adv-x="348"
d="M348 329v0v-274v0c0 -20 -17 -37 -37 -37v0h-274v0c-20 0 -37 17 -37 37v0v274v0c0 20 17 37 37 37v0h274v0c20 -1 37 -17 37 -37zM174 153c22 0 39 17 39 39s-17 39 -39 39s-39 -17 -39 -39s17 -39 39 -39z" />
    <glyph glyph-name="uniF13D" unicode="&#xf13d;" horiz-adv-x="348"
d="M348 329v0v-274v0c0 -20 -17 -37 -37 -37v0h-274v0c-20 0 -37 17 -37 37v0v274v0c0 20 17 37 37 37v0h274v0c20 -1 37 -17 37 -37zM87 71c20 0 36 16 36 36s-16 36 -36 36s-36 -16 -36 -36s16 -36 36 -36zM87 156c20 0 36 16 36 36s-16 36 -36 36s-36 -16 -36 -36
s16 -36 36 -36zM87 243c20 0 36 16 36 36s-16 36 -36 36s-36 -16 -36 -36s16 -36 36 -36zM261 69c20 0 36 16 36 36s-16 36 -36 36s-36 -16 -36 -36s16 -36 36 -36zM261 156c20 0 36 16 36 36s-16 36 -36 36s-36 -16 -36 -36s16 -36 36 -36zM261 243c20 0 36 16 36 36
s-16 36 -36 36s-36 -16 -36 -36s16 -36 36 -36z" />
    <glyph glyph-name="uniF13E" unicode="&#xf13e;" horiz-adv-x="348"
d="M348 329v0v-274v0c0 -20 -17 -37 -37 -37v0h-274v0c-20 0 -37 17 -37 37v0v274v0c0 20 17 37 37 37v0h274v0c20 -1 37 -17 37 -37zM87 243c20 0 36 16 36 36s-16 36 -36 36s-36 -16 -36 -36s16 -36 36 -36zM174 156c20 0 36 16 36 36s-16 36 -36 36s-36 -16 -36 -36
s16 -36 36 -36zM261 69c20 0 36 16 36 36s-16 36 -36 36s-36 -16 -36 -36s16 -36 36 -36z" />
    <glyph glyph-name="uniF13F" unicode="&#xf13f;" horiz-adv-x="348"
d="M348 329v0v-274v0c0 -20 -17 -37 -37 -37v0h-274v0c-20 0 -37 17 -37 37v0v274v0c0 20 17 37 37 37v0h274v0c20 -1 37 -17 37 -37zM87 243c20 0 36 16 36 36s-16 36 -36 36s-36 -16 -36 -36s16 -36 36 -36zM261 69c20 0 36 16 36 36s-16 36 -36 36s-36 -16 -36 -36
s16 -36 36 -36z" />
    <glyph glyph-name="uniF140" unicode="&#xf140;" horiz-adv-x="333"
d="M333 295v0v-144v0c0 -7 -5 -13 -12 -13v0h-71v-58v-1v-17v0c0 -16 -13 -29 -29 -29c-11 0 -21 6 -26 15v0l-50 86v0v0v1l-3 3h-51h-1c-7 0 -13 6 -13 13v0v0v144v0v43v0v1v0v0c0 7 6 12 13 12h1h185c2 0 4 0 5 -1v0l50 -50v0c1 -1 2 -3 2 -5v0zM51 316v-138v-2
c0 -7 -6 -13 -13 -13v0v0v0v0h-25v0c-7 0 -12 6 -13 12v0v141v0c0 7 6 12 13 12v0h24l1 1c7 0 13 -6 13 -13v0v0z" />
    <glyph glyph-name="uniF141" unicode="&#xf141;" horiz-adv-x="447"
d="M447 294v-204v0v0c0 -11 -9 -20 -20 -20v0v0h-407c-11 0 -20 9 -20 20v0v0v204v0c0 11 9 20 20 20h407v0v0c11 0 20 -9 20 -20v0zM371 266v0v0c0 -2 2 -4 4 -4v0v0h21v-21v0c0 -2 2 -4 4 -4v0h17v0h1c2 0 4 2 4 4v0v43c0 2 -2 4 -4 4h-1v0h-42v0v0c-2 0 -4 -2 -4 -4v-18z
M77 118v0v0c0 2 -2 4 -4 4h-1v0h-21v21v0c0 2 -2 4 -4 4v0h-17v0v0c-2 0 -4 -2 -4 -4v0v-43c0 -2 2 -4 4 -4v0v0h42v0h1c2 0 4 2 4 4v18zM77 284v0v0c0 2 -2 4 -4 4h-43c-2 0 -4 -2 -4 -4v0v0v-43v0v0c0 -2 2 -4 4 -4h17v0v0c2 0 4 2 4 4v0v0v21h22v0c2 0 4 3 4 5v0v17z
M224 96c53 0 96 43 96 96s-43 96 -96 96s-96 -43 -96 -96s43 -96 96 -96zM422 143v0v0c0 2 -2 4 -4 4h-18v0c-2 0 -4 -2 -4 -4v0v0v-21h-21v0c-2 0 -4 -3 -4 -5v0v-17v0v0c0 -2 2 -4 4 -4h43c2 0 4 2 4 4v0v0v43zM224 263c39 0 70 -32 70 -71c0 -15 -4 -29 -12 -40v0
c0 3 -2 7 -4 8l-28 13l-12 6c5 3 9 8 12 14c2 5 3 10 3 16c0 3 0 6 -1 9c-4 14 -14 25 -28 25c-13 0 -25 -10 -29 -24c-1 -3 -1 -6 -1 -10c0 -6 2 -12 4 -17c3 -6 7 -11 12 -14l-11 -5l-29 -13c-3 -1 -4 -5 -4 -8v0c-8 11 -13 25 -13 40c0 39 32 71 71 71z" />
    <glyph glyph-name="uniF142" unicode="&#xf142;" horiz-adv-x="209"
d="M126 219c39 -10 83 -26 83 -77c0 -42 -28 -73 -83 -79v-28v0c0 -3 -3 -6 -6 -6h-23v0c-3 0 -6 3 -6 6v28c-39 3 -68 18 -89 39v0c-1 1 -2 3 -2 5c0 1 0 2 1 3v0l22 32v0c1 2 3 3 5 3c1 0 2 0 3 -1v0l1 -1v0c14 -14 34 -28 59 -32v58c-39 9 -81 25 -81 76
c0 38 30 70 81 75v29c0 3 3 6 6 6h23c3 0 6 -3 6 -6v0v-30c30 -3 57 -14 77 -33c1 -1 2 -2 2 -4c0 -1 -1 -3 -2 -4v0l-21 -31h-1c-1 -1 -2 -2 -4 -2c-1 0 -3 0 -4 1v0c-14 12 -30 20 -47 24v-51zM91 227v46c-17 -2 -26 -11 -26 -24c0 -11 11 -17 26 -22zM126 111
c19 4 29 14 29 26s-12 19 -29 24v-50z" />
    <glyph glyph-name="uniF143" unicode="&#xf143;" horiz-adv-x="404"
d="M379 194c14 0 25 -11 25 -25v-144c0 -14 -11 -25 -25 -25h-354c-14 0 -25 11 -25 25v144c0 14 11 25 25 25h90c11 0 21 -7 24 -17c9 -28 34 -46 63 -46s54 18 63 46c3 10 13 17 24 17h90zM197 181l-70 98c-1 2 -2 5 -1 7s3 3 6 3h33v88c0 4 3 7 7 7h60c4 0 7 -3 7 -7v-88
h33c3 0 5 -1 6 -3s0 -5 -1 -7l-69 -98c-1 -2 -4 -3 -6 -3v0c-2 0 -4 1 -5 3z" />
    <glyph glyph-name="uniF144" unicode="&#xf144;" horiz-adv-x="382"
d="M13 141c-7 0 -13 6 -13 13c0 4 2 7 4 9l176 177c2 3 7 5 11 5s7 -2 9 -5v0l178 -177c3 -2 4 -5 4 -9c0 -7 -5 -13 -12 -13v0h-357v0zM382 52v0c0 -7 -6 -13 -13 -13v0h-357v0c-7 1 -12 6 -12 13v1v49v0c0 7 5 12 12 13v0l357 1v0c7 0 13 -6 13 -13v0v0v-51z" />
    <glyph glyph-name="uniF145" unicode="&#xf145;" horiz-adv-x="493"
d="M389 393c7 0 13 -6 13 -13v-376c0 -7 -6 -13 -13 -13v0v0h-376v0v0v0v0c-7 0 -13 6 -13 13v376c0 7 6 13 13 13v0h376v0v0zM51 341v-298h299v298h-299zM490 120c1 0 2 0 3 -1s0 -2 -1 -3l-31 -44c-1 -1 -1 -2 -2 -2v0c-1 0 -2 1 -3 2l-31 44c-1 1 -2 2 -1 3s2 1 3 1h15
v40c0 2 1 3 3 3h27c2 0 3 -1 3 -3v-40h15zM427 264c-1 0 -2 0 -3 1s0 2 1 3l31 44c1 1 2 2 3 2v0c1 0 1 -1 2 -2l32 -44c1 -1 1 -2 0 -3s-2 -1 -3 -1h-15v-40c0 -2 -1 -3 -3 -3h-27c-2 0 -3 1 -3 3v40h-15zM109 284c0 17 8 26 25 26s25 -9 25 -26s-8 -25 -25 -25
s-25 8 -25 25zM182 252c6 -1 11 -6 11 -12v-72v0c0 -3 -1 -5 -3 -7c-4 -4 -12 -4 -16 0c-2 2 -3 4 -3 7v0v50v0c0 2 -1 4 -3 4s-4 -2 -4 -4v0v-32v-33v-66c0 -7 -5 -13 -12 -13s-13 6 -13 13v66v0c0 2 -1 4 -3 4s-4 -2 -4 -4v0v-66c0 -7 -5 -13 -12 -13s-13 6 -13 13v99v32
v0v0c0 2 -1 4 -3 4s-3 -2 -3 -4v0v0v-50v0c0 -3 -2 -5 -4 -7c-4 -4 -11 -4 -15 0c-2 2 -3 4 -3 7v0v72v0c0 7 5 12 12 12v0h91v0zM238 284c0 17 9 26 26 26s25 -9 25 -26s-8 -25 -25 -25s-26 8 -26 25zM312 252c6 -1 10 -6 10 -12v-72v0c0 -3 -1 -5 -3 -7
c-4 -4 -11 -4 -15 0c-2 2 -3 4 -3 7v0v50v0c0 2 -1 4 -3 4s-4 -2 -4 -4v0v-32v-33v-66c0 -7 -5 -13 -12 -13s-13 6 -13 13v66v0c0 2 -1 4 -3 4s-4 -2 -4 -4v0v-66c0 -7 -5 -13 -12 -13s-13 6 -13 13v99v32v0v0c0 2 -1 4 -3 4s-4 -2 -4 -4v0v0v-50v0c0 -3 -1 -5 -3 -7
c-4 -4 -11 -4 -15 0c-2 2 -3 4 -3 7v0v72v0c0 7 5 12 12 12v0h91v0z" />
    <glyph glyph-name="uniF146" unicode="&#xf146;" horiz-adv-x="283"
d="M280 125c3 -2 3 -5 2 -8v0v0v0v0c-19 -34 -55 -67 -115 -67c-68 0 -122 38 -140 98h-21v-1c-3 0 -6 3 -6 6v21c0 3 3 6 6 6v0h15v12v13h-15v0c-3 0 -6 3 -6 6v21c0 3 3 6 6 6v0h21c19 59 73 96 140 96c60 0 96 -33 115 -67v0v0v0v0c1 -3 1 -6 -2 -8h-1v0l-40 -19v0
c-3 -1 -5 -1 -7 2v0c-12 22 -37 40 -65 40c-34 0 -61 -17 -75 -44h100v0c3 0 6 -3 6 -6v-21c0 -3 -3 -6 -6 -6v0v0v0v0h-110c-1 -5 -1 -8 -1 -13v-12h111v0c3 0 6 -3 6 -6v-21c0 -3 -3 -6 -6 -6v0h-101c14 -28 41 -45 76 -45c28 0 52 17 64 39l1 1c2 3 4 3 7 2v0l40 -19v0h1
z" />
    <glyph glyph-name="uniF147" unicode="&#xf147;" horiz-adv-x="365"
d="M359 204c4 -2 6 -6 6 -11c0 -4 -2 -8 -4 -10v0v0l-1 -1l-79 -79v0c-24 -27 -60 -44 -99 -44c-35 0 -66 14 -90 36v-1l-87 87c-3 3 -5 7 -5 11c0 3 1 7 3 9v0l80 79c24 27 60 45 99 45c35 0 67 -14 91 -36v1zM182 102c50 0 90 40 90 90s-40 90 -90 90s-90 -40 -90 -90
s40 -90 90 -90zM139 192c0 29 14 43 43 43s44 -14 44 -43s-15 -44 -44 -44s-43 15 -43 44z" />
    <glyph glyph-name="uniF148" unicode="&#xf148;" horiz-adv-x="372"
d="M372 192c0 -3 -1 -5 -4 -7v-1l-192 -111c-2 -2 -5 -2 -7 -2c-5 0 -8 3 -8 8v78l-146 -84c-2 -2 -4 -2 -6 -2c-5 0 -9 3 -9 8v226v0c0 5 4 8 9 8c2 0 4 0 6 -2l146 -84v78v0c0 5 3 8 8 8c2 0 5 0 7 -2l191 -111v0c3 -1 5 -4 5 -8z" />
    <glyph glyph-name="uniF149" unicode="&#xf149;" horiz-adv-x="268"
d="M229 163c-20 -20 -44 -32 -70 -37v-41h28v0c2 0 4 0 6 -2s2 -4 2 -6v-35c0 -4 -4 -8 -8 -8v0h-28v-34v0c0 -4 -4 -8 -8 -8v0h-35v0v0h-2v0c-4 1 -6 4 -6 8v0v34h-27v0c-4 0 -8 4 -8 8v0v35v0c0 2 0 4 2 6s4 2 6 2v0h27v41c-25 5 -50 18 -69 37c-52 52 -52 138 0 190
s138 52 190 0s52 -138 0 -190zM134 175c46 0 83 37 83 83s-37 83 -83 83s-83 -37 -83 -83s37 -83 83 -83z" />
    <glyph glyph-name="uniF14A" unicode="&#xf14a;" horiz-adv-x="227"
d="M68 345c0 28 14 42 42 42s42 -14 42 -42s-14 -42 -42 -42s-42 14 -42 42zM227 171v0v-3c0 -3 -1 -6 -3 -9s-3 -4 -6 -6s-6 -3 -9 -3c-8 0 -14 4 -17 12v0l-20 76v0c-1 3 -3 5 -6 5c-4 0 -5 -2 -5 -6v-2v0l32 -122c1 -1 1 -2 1 -3l1 -1h-1h1c0 -6 -4 -10 -10 -10h-24v-81
c0 -4 -1 -7 -3 -10s-5 -6 -8 -8s-6 -3 -10 -3c-6 0 -11 3 -15 7s-6 8 -6 14v81h-12v-81c0 -6 -2 -10 -6 -14s-8 -7 -14 -7s-11 3 -15 7s-6 8 -6 14v81h-24c-6 0 -10 4 -10 10v0v0v1c0 1 0 2 1 3l33 123v1v0v0v1v0c-1 3 -2 5 -5 5s-5 -2 -6 -5v0v0l-20 -76h-1
c-3 -8 -8 -12 -16 -12c-5 0 -10 3 -13 6s-5 7 -5 12v3v0l28 105v0l1 2v0c3 9 8 13 18 13v1h132v-1v0c10 0 16 -4 19 -13v0l1 -2v0z" />
    <glyph glyph-name="uniF14B" unicode="&#xf14b;" horiz-adv-x="410"
d="M410 334c0 -10 -4 -19 -11 -25v0l-156 -155v-118v0v-2c0 -10 -7 -17 -17 -17c-3 0 -6 1 -9 2v0v0l-1 1l-40 23v0c-5 3 -9 9 -9 15v0v0v96l-155 154c-8 6 -12 16 -12 26c0 18 15 33 33 33h2v0h343v0c18 -1 32 -15 32 -33zM114 301v0v0v0z" />
    <glyph glyph-name="uniF14C" unicode="&#xf14c;" horiz-adv-x="411"
d="M100 308v45v1c0 7 6 12 13 12v0v0h185v0c7 0 12 -5 12 -12v0v-47h-31v27h-148v-26h-31zM76 18v262h259v-262h-259zM128 167v-37c0 -1 0 -1 1 -2s2 -1 3 -1h52v-53c0 -1 0 -2 1 -3s2 -1 3 -1h37c1 0 1 0 2 1s2 2 2 3v53h52c1 0 2 0 3 1s1 1 1 2v37c0 2 -2 4 -4 4h-52v52
c0 2 -2 4 -4 4h-37c-2 0 -4 -2 -4 -4v-52h-52c-2 0 -4 -2 -4 -4zM20 280v0h31v-262h-31v0c-11 0 -20 9 -20 20v1v220v0c0 11 9 21 20 21zM411 38v0c0 -11 -9 -20 -20 -20v0v0h-31v262h31c11 0 20 -9 20 -20v0v-222z" />
    <glyph glyph-name="uniF14D" unicode="&#xf14d;" horiz-adv-x="372"
d="M364 325c4 0 8 -4 8 -8v-169c0 -2 -1 -5 -3 -6c-21 -22 -51 -36 -84 -36c-31 0 -58 11 -79 31c-23 27 -57 45 -96 45c-20 0 -39 -4 -56 -13v-145c0 -15 -12 -27 -27 -27s-27 12 -27 27v322c0 15 12 27 27 27c11 0 20 -6 24 -15c20 18 47 29 77 29c31 0 59 -11 80 -31
c23 -27 56 -45 95 -45c21 0 41 5 58 14v0h3z" />
    <glyph glyph-name="uniF14E" unicode="&#xf14e;" horiz-adv-x="425"
d="M397 325c15 0 28 -13 28 -28v-248c0 -15 -13 -28 -28 -28h-369c-15 0 -28 13 -28 28v248c0 15 13 28 28 28h30l26 32c3 4 8 6 13 6h74c6 0 12 -5 15 -10c3 -4 13 -16 23 -28h188zM374 124v31c0 2 -1 4 -3 4h-45v45c0 2 -2 3 -4 3h-31c-2 0 -4 -1 -4 -3v-45h-45
c-2 0 -3 -2 -3 -4v-31c0 -1 0 -1 1 -2s1 -1 2 -1h45v-45c0 -1 0 -2 1 -3s2 -1 3 -1h31c1 0 2 0 3 1s1 2 1 3v45h45c1 0 1 0 2 1s1 1 1 2z" />
    <glyph glyph-name="uniF14F" unicode="&#xf14f;" horiz-adv-x="425"
d="M312 181c9 0 17 -8 17 -17v0v0v0v-15h-34v15c0 9 8 17 17 17zM397 325c15 0 28 -13 28 -28v-248c0 -15 -13 -28 -28 -28h-369c-15 0 -28 13 -28 28v248c0 15 13 28 28 28h30l26 32c3 4 8 6 13 6h74c6 0 12 -5 15 -10c3 -4 13 -16 23 -28h188zM374 77v0v67c0 3 -2 5 -5 5
h-6h-9v15v0c0 23 -19 42 -42 42s-41 -19 -41 -42v-15h-8h-6c-3 0 -5 -2 -5 -5v-67c0 -3 2 -5 5 -5h112c3 0 5 2 5 5z" />
    <glyph glyph-name="uniF150" unicode="&#xf150;" horiz-adv-x="425"
d="M397 325c15 0 28 -13 28 -28v-248c0 -15 -13 -28 -28 -28h-369c-15 0 -28 13 -28 28v248c0 15 13 28 28 28h30l26 32c3 4 8 6 13 6h74c6 0 12 -5 15 -10c3 -4 13 -16 23 -28h188z" />
    <glyph glyph-name="uniF151" unicode="&#xf151;" horiz-adv-x="264"
d="M0 264c0 15 7 22 22 22s22 -7 22 -22s-7 -22 -22 -22s-22 7 -22 22zM168 368c0 30 15 45 45 45s45 -15 45 -45s-15 -44 -45 -44s-45 14 -45 44zM92 354c0 19 9 28 28 28s28 -9 28 -28s-9 -28 -28 -28s-28 9 -28 28zM249 69v0c9 -11 13 -24 13 -38c0 -17 -5 -31 -17 -43
s-26 -17 -43 -17c-13 0 -25 3 -35 11s-18 18 -22 30l-76 131l1 1c-5 8 -9 16 -11 25c-3 11 -5 22 -5 33c0 29 10 53 31 74s45 31 74 31c19 0 37 -5 53 -14s29 -23 38 -39s14 -33 14 -52c0 -21 -5 -41 -17 -59v0c-6 -11 -9 -23 -9 -35c0 -14 3 -27 11 -39zM39 311
c0 15 7 23 22 23s22 -8 22 -23s-7 -22 -22 -22s-22 7 -22 22z" />
    <glyph glyph-name="uniF152" unicode="&#xf152;" horiz-adv-x="356"
d="M325 59c1 0 1 -1 1 -2v-1l-6 -12c0 -1 -1 -1 -2 -1h-1l-16 8c-1 0 -1 1 -1 2s1 0 1 1l6 12c1 1 2 2 3 1zM325 328c1 0 1 -1 1 -2v-1l-7 -11c0 -1 0 -2 -1 -2l-2 1l-15 9c-1 0 -1 0 -1 1v2l7 11c1 1 2 2 3 1zM295 75c1 -1 2 -2 1 -3l-7 -12c0 -1 -1 -1 -2 -1h-1l-4 3l-5 2
l-62 -34v0v0c-1 -1 -4 -1 -5 -1s-3 0 -4 1v0v0l-63 34l-62 -34v0h-1c-1 -1 -3 -1 -4 -1s-3 0 -4 1h-1v0l-67 37c-3 1 -4 3 -4 6v274c0 3 2 6 5 7s6 0 9 -1l62 -34l62 34h1v1h2h2h2h2l1 -1v0l62 -34l62 34c2 2 6 3 9 1l7 -5l7 -3c1 0 1 -1 1 -2s-1 0 -1 -1l-6 -12
c0 -1 -1 -1 -2 -1l-1 1l-9 5v-252zM76 46v256l-58 31v-256zM210 46v256l-67 36v-256zM354 160c1 0 2 -2 2 -3v-27c0 -1 -1 -2 -2 -2h-13c-1 0 -3 1 -3 2v27c0 1 2 3 3 3h13zM354 52c1 0 2 -1 2 -2v-10c0 -8 -5 -11 -10 -11c-2 0 -4 1 -6 2l-8 4c-1 0 -1 1 -1 2v1l6 12l1 1
l2 1h1h13zM349 314c0 0 7 -4 7 -12v-10c0 -1 -1 -2 -2 -2h-13c-1 0 -3 1 -3 2v8l-6 4c-1 0 -1 0 -1 1v2l6 11c1 1 2 2 3 1zM354 267c1 0 2 -1 2 -2v-27c0 -1 -1 -2 -2 -2h-13c-1 0 -3 1 -3 2v27c0 1 2 2 3 2h13zM354 106c1 0 2 -1 2 -2v-27c0 -1 -1 -3 -2 -3h-13
c-1 0 -3 2 -3 3v27c0 1 2 2 3 2h13zM354 213c1 0 2 -1 2 -2v-27c0 -1 -1 -2 -2 -2h-13c-1 0 -3 1 -3 2v27c0 1 2 2 3 2h13z" />
    <glyph glyph-name="uniF153" unicode="&#xf153;" horiz-adv-x="427"
d="M193 140c4 0 8 -4 8 -8v-112c0 -4 -4 -8 -8 -8h-72c-4 0 -8 4 -8 8v112c0 4 4 8 8 8h72zM306 372c4 0 8 -4 8 -8v-344c0 -4 -4 -8 -8 -8h-72c-4 0 -8 4 -8 8v344c0 4 4 8 8 8h72zM420 267c4 0 7 -3 7 -7v-240c0 -4 -3 -8 -7 -8h-73c-4 0 -8 4 -8 8v240c0 4 4 7 8 7h73z
M80 267c4 0 8 -3 8 -7v-240c0 -4 -4 -8 -8 -8h-72c-4 0 -8 4 -8 8v240c0 4 4 7 8 7h72z" />
    <glyph glyph-name="uniF154" unicode="&#xf154;" horiz-adv-x="387"
d="M380 238c4 0 7 -4 7 -8v-77c0 -4 -3 -8 -7 -8h-372c-4 0 -8 4 -8 8v77c0 4 4 8 8 8h372zM226 357c3 -1 5 -4 5 -8v-77c0 -4 -2 -7 -5 -8v0h-218c-4 0 -8 4 -8 8v77c0 4 4 8 8 8h218v0zM275 120c4 0 8 -4 8 -8v-77c0 -4 -4 -8 -8 -8h-267c-4 0 -8 4 -8 8v77c0 4 4 8 8 8
h267z" />
    <glyph glyph-name="uniF155" unicode="&#xf155;" horiz-adv-x="380"
d="M212 382c93 -1 167 -76 168 -169c0 -4 -2 -6 -6 -6h-1v0h-161c-4 0 -7 2 -7 6v161v0v1c0 4 3 7 7 7zM341 174v0v-2c0 -94 -76 -170 -170 -170s-171 76 -171 170s77 171 171 171h1v0h1c4 0 7 -3 7 -7l-1 -1h1v-147c0 -4 2 -7 6 -7h148c4 0 7 -3 7 -7z" />
    <glyph glyph-name="uniF156" unicode="&#xf156;" horiz-adv-x="410"
d="M384 37h-359c-14 0 -25 11 -25 25v260c0 14 11 25 25 25h359c14 0 26 -11 26 -25v-260c0 -14 -12 -25 -26 -25zM359 87v210h-309v-210h309zM162 111c-5 0 -10 2 -13 5l-25 25l-31 -25c-8 -6 -19 -6 -25 2s-6 19 2 25l44 36c7 6 17 6 24 -1l21 -21l46 72c4 5 9 8 16 8
s12 -4 15 -10l27 -58l52 92c5 9 16 12 25 7s12 -15 7 -24l-70 -123c-3 -6 -9 -9 -16 -9s-13 5 -16 11l-28 59l-40 -63c-3 -5 -8 -7 -13 -8h-2z" />
    <glyph glyph-name="uniF157" unicode="&#xf157;" horiz-adv-x="399"
d="M148 320c-3 2 -5 5 -5 9c0 6 4 10 10 10c3 0 6 -1 8 -3l60 -60c3 -2 5 -5 5 -9c0 -6 -5 -10 -11 -10c-2 0 -4 1 -6 2v0h-1v1zM215 111h-25c-14 0 -28 0 -41 1l24 -42c2 -3 4 -7 4 -11c0 -10 -8 -18 -18 -18c-6 0 -11 3 -14 7v0l-38 65l-37 -65h-1c-3 -4 -8 -7 -14 -7
c-10 0 -18 8 -18 18c0 4 2 8 4 11l32 56c-8 6 -14 29 -14 56c0 13 2 24 4 34l-57 33v0c-4 2 -6 6 -6 11c0 7 6 13 13 13c2 0 4 0 6 -1v0l56 -33c1 0 2 1 3 1h137v-129zM306 125l31 -55c2 -3 4 -7 4 -11c0 -10 -8 -18 -18 -18c-6 0 -11 3 -14 7h-1l-37 65l-38 -65v0
c-3 -4 -8 -7 -14 -7c-10 0 -18 8 -18 18c0 4 2 8 4 11l31 54v116l83 -83c-2 -17 -7 -29 -13 -32zM399 235c0 -4 -2 -8 -4 -10v0l-11 -11v0h-10h-40l-14 -14c1 -5 1 -11 1 -16l-72 72l42 42l26 45l13 -22c3 0 5 -2 7 -3v1l26 -15c7 -3 11 -10 11 -18v-21l20 -20
c3 -2 5 -6 5 -10z" />
    <glyph glyph-name="uniF158" unicode="&#xf158;" horiz-adv-x="321"
d="M148 302c58 0 104 -48 104 -106c0 -13 -2 -24 -6 -36c0 -1 -1 -2 -1 -3c0 0 -15 -26 -25 -38c-1 -2 -3 -3 -4 -5c-7 -8 -10 -11 -10 -24c1 -27 1 -37 -1 -45c-4 -26 -23 -39 -55 -40v0v0c-9 0 -17 7 -17 16c0 5 1 10 4 13s7 5 12 5c21 1 22 7 23 11v2c1 5 0 21 0 37
c-1 26 10 38 18 48l4 4c6 7 17 24 21 32c2 7 3 15 3 23c0 39 -31 72 -70 72s-71 -33 -71 -72c0 -9 -8 -17 -17 -17s-17 8 -17 17c0 58 47 106 105 106zM172 194c0 13 -11 24 -24 24s-24 -11 -24 -24c0 -8 -7 -15 -15 -15s-14 7 -14 15c0 29 24 52 53 52s52 -23 52 -52
c0 -8 -6 -15 -14 -15s-14 7 -14 15zM75 142c6 6 16 6 22 0c3 -3 5 -8 5 -12s-2 -8 -5 -11l-70 -71c-3 -3 -7 -4 -11 -4s-8 1 -11 4s-5 8 -5 12s2 8 5 11zM207 334c38 0 69 -30 69 -68v0v-7v0c0 -3 -3 -6 -6 -6v0h-12v0c-3 0 -6 3 -6 6v0v7v0c0 24 -21 44 -45 44v0v0h-7v0
c-3 0 -5 3 -5 6v0v11v0c0 3 2 7 5 7v0h7v0v0zM321 266v0v-7v0c0 -3 -3 -6 -6 -6v0h-11v0c-3 0 -7 3 -7 6v0v7v0c0 49 -41 89 -90 89v0v0h-7v0c-3 0 -5 3 -5 6v0v12v0c0 3 2 6 5 6v0h7v0v0c63 0 114 -50 114 -113z" />
    <glyph glyph-name="uniF159" unicode="&#xf159;" horiz-adv-x="409"
d="M295 379c63 0 114 -51 114 -114c0 -68 -33 -108 -59 -140l-6 -7c-31 -38 -128 -108 -132 -111c-2 -2 -5 -2 -8 -2s-5 0 -7 2c-4 3 -101 73 -132 111l-6 7c-26 32 -59 72 -59 140c0 63 51 114 114 114c36 0 69 -16 90 -44c21 28 55 44 91 44z" />
    <glyph glyph-name="uniF15A" unicode="&#xf15a;" horiz-adv-x="353"
d="M348 254c3 -2 5 -6 5 -10v-233c0 -7 -6 -13 -13 -13h-96c-7 0 -12 6 -12 13v143h-111v-143c0 -7 -5 -13 -12 -13h-96c-7 0 -13 6 -13 13v233c0 4 2 8 5 10l161 129c5 4 11 4 16 0z" />
    <glyph glyph-name="uniF15B" unicode="&#xf15b;" horiz-adv-x="300"
d="M0 362v0h300l-27 -306l-123 -34l-123 34zM243 289l1 11h-94v0h-94l1 -11l9 -103h84v0h46l-4 -49l-42 -11v0v0l-42 11l-3 30h-20h-17l5 -59l77 -21v0v0l77 21v7l9 98l1 11h-10h-77v0h-50l-3 38h53v0h90h1v8z" />
    <glyph glyph-name="uniF15C" unicode="&#xf15c;" horiz-adv-x="355"
d="M337 370c10 0 18 -7 18 -17v-16c0 -10 -8 -17 -18 -17h-320c-10 0 -17 7 -17 17v16c0 10 7 17 17 17h320zM337 64c10 0 18 -7 18 -17v-16c0 -10 -8 -17 -18 -17h-320c-10 0 -17 7 -17 17v16c0 10 7 17 17 17h320zM355 149v0v-16v0c0 -10 -8 -17 -18 -17v0h-198
c-10 0 -18 7 -18 17v16c0 10 8 17 18 17h198v0v0c10 0 18 -7 18 -17zM355 250v0v-16v0c0 -10 -8 -17 -18 -17v0h-198c-10 0 -18 7 -18 17v16c0 10 8 18 18 18h198v0v0c10 0 18 -8 18 -18zM0 192c0 1 0 1 1 2v1l64 36c1 1 1 1 2 1c2 0 3 -1 3 -3v-74v0c0 -2 -1 -3 -3 -3
c-1 0 -1 0 -2 1l-63 36v0c-1 0 -2 2 -2 3z" />
    <glyph glyph-name="uniF15D" unicode="&#xf15d;" horiz-adv-x="355"
d="M337 370c10 0 18 -7 18 -17v-16c0 -10 -8 -17 -18 -17h-320c-10 0 -17 7 -17 17v16c0 10 7 17 17 17h320zM337 64c10 0 18 -7 18 -17v-16c0 -10 -8 -17 -18 -17h-320c-10 0 -17 7 -17 17v16c0 10 7 17 17 17h320zM355 149v0v-16v0c0 -10 -8 -17 -18 -17v0h-199
c-10 0 -17 7 -17 17v16c0 10 7 17 17 17h199v0c10 0 18 -7 18 -17zM355 250v0v-16v0c0 -10 -8 -17 -18 -17v0h-199c-10 0 -17 7 -17 17v16c0 10 7 18 17 18h199v0c10 0 18 -8 18 -18zM3 152c-2 0 -3 1 -3 3v74v0c0 2 1 3 3 3c1 0 1 0 2 -1l63 -36v0c1 0 2 -2 2 -3
s0 -1 -1 -2v-1l-64 -36c-1 -1 -1 -1 -2 -1z" />
    <glyph glyph-name="uniF15E" unicode="&#xf15e;" horiz-adv-x="384"
d="M192 384c106 0 192 -86 192 -192s-86 -192 -192 -192s-192 86 -192 192s86 192 192 192zM212 85v124c0 4 -3 7 -7 7h-26c-4 0 -7 -3 -7 -7v-124c0 -4 3 -6 7 -6h26c4 0 7 2 7 6zM192 244c13 0 23 10 23 23s-10 23 -23 23s-23 -10 -23 -23s10 -23 23 -23z" />
    <glyph glyph-name="uniF15F" unicode="&#xf15f;" horiz-adv-x="108"
d="M108 324v-4v0l-58 -261v0c-1 -7 -6 -12 -13 -12h-25v0c-7 1 -12 6 -12 13v3v0v0v0l58 261v0c0 7 6 13 13 13h24c7 0 13 -6 13 -13z" />
    <glyph glyph-name="uniF160" unicode="&#xf160;" horiz-adv-x="445"
d="M445 218v0v0v-32v0c0 -2 0 -5 -2 -7s-5 -2 -7 -2v0h-27h-1v-61v0v-39v0c0 -5 -4 -9 -9 -9h-1h-31v0c-5 0 -10 4 -10 9v0v21v0v79h-25v-26v0v-39v0c0 -5 -5 -9 -10 -9v0h-31v0h-1c-5 0 -9 4 -9 9v0v16v23v26h-45c-10 -56 -58 -99 -117 -99c-66 0 -119 53 -119 119
s53 119 119 119c55 0 102 -38 115 -89h163h12h27c2 0 5 -1 7 -3s2 -4 2 -6zM119 128c38 0 68 30 68 68s-30 68 -68 68s-68 -30 -68 -68s30 -68 68 -68z" />
    <glyph glyph-name="uniF161" unicode="&#xf161;" horiz-adv-x="488"
d="M60 101c-14 0 -26 12 -26 26v226c0 14 12 25 26 25h368c14 0 25 -11 25 -25v-226c0 -14 -11 -26 -25 -26h-368zM85 327v-175h318v175h-318zM476 76c6 0 12 -6 12 -12v-28c0 -3 -2 -7 -4 -9l-18 -18c-2 -2 -5 -3 -8 -3h-430c-3 0 -6 2 -8 4l-17 18c-2 2 -3 5 -3 8v28
c0 6 6 12 12 12h464zM288 35v12c0 1 -1 2 -2 2h-84c-1 0 -3 -1 -3 -2v-12c0 -1 2 -3 3 -3h84c1 0 2 2 2 3z" />
    <glyph glyph-name="uniF162" unicode="&#xf162;" horiz-adv-x="381"
d="M76 173v119h229v-119h-229zM82 92v56h57v-56h-57zM246 92v56h57v-56h-57zM164 92v56h57v-56h-57zM358 368c13 0 23 -10 23 -23v-307v0c-1 -12 -11 -22 -23 -22h-335v0v0c-12 0 -22 10 -23 22v0v307v0c0 13 10 23 23 23v0h335v0zM330 67v0v250h-279v-250h279z" />
    <glyph glyph-name="uniF163" unicode="&#xf163;" horiz-adv-x="426"
d="M368 351v0l-45 -45c-3 -3 -7 -3 -10 0v0l-11 11v0c-3 3 -3 7 0 10l45 45v0c3 3 8 3 11 0v0v0l10 -10v0c3 -3 3 -8 0 -11v0v0v0zM206 349c-4 0 -8 3 -8 7v0v64c0 4 4 8 8 8v0h14v0c4 0 8 -4 8 -8v-64v0c0 -4 -4 -7 -8 -7v0h-14v0zM426 243v0v-15v0c0 -4 -3 -7 -7 -7v0h-64
c-4 0 -7 3 -7 7v0v15v0c0 4 3 8 7 8h64v0c4 0 7 -4 7 -8zM213 324c60 0 109 -49 109 -109c0 -22 -7 -42 -18 -59c-18 -26 -28 -60 -29 -99c-1 -2 -4 -5 -7 -5h-1v0h-108v0h-1c-3 0 -5 2 -6 4c-1 37 -12 71 -28 96v0c-13 18 -20 39 -20 63c0 60 49 109 109 109zM268 -12
c4 0 7 -3 7 -7v-17c0 -4 -3 -8 -7 -8h-1v0h-108v0h-1c-4 0 -8 4 -8 8v17c0 4 4 7 8 7h1v0h108v0h1zM268 37c4 0 7 -4 7 -8v-17c0 -4 -3 -8 -7 -8l-1 1v-1h-108v1l-1 -1c-4 0 -8 4 -8 8v17v0c0 4 4 8 8 8h1v0h108v0h1zM71 245c4 0 8 -4 8 -8v0v-14v0c0 -4 -4 -8 -8 -8v0h-64
c-4 0 -7 4 -7 8v14c0 4 3 8 7 8h64v0zM60 354c-3 3 -3 7 0 10v0l11 11v0v0c3 3 8 3 11 0l45 -46v0c3 -3 3 -7 0 -10v0l-11 -10v0c-3 -3 -7 -4 -10 -1v0z" />
    <glyph glyph-name="uniF164" unicode="&#xf164;" horiz-adv-x="333"
d="M333 67c0 -7 -6 -13 -13 -13v0v0v0v0h-26v1c-7 0 -11 5 -12 11v0v141v0c0 7 5 13 12 13v0h25h1c7 0 12 -6 12 -13v0v0v-138c0 -1 1 -1 1 -2zM256 46v0v-1v0v0c0 -7 -6 -12 -13 -12h-1h-185c-2 0 -4 0 -5 1v0l-50 50v0c-1 1 -2 3 -2 5v0v144v0c0 7 6 13 13 13v0h70v58v1
v17v0v0c0 16 13 29 29 29c11 0 21 -6 26 -15v0l51 -87c1 -1 1 -2 2 -3h51h1c7 0 13 -6 13 -13v0v0v-144v0v-43zM15 89l1 -1l-1 1v0z" />
    <glyph glyph-name="uniF165" unicode="&#xf165;" horiz-adv-x="353"
d="M323 339c39 -39 40 -101 4 -141v0l-52 -52c-9 -9 -20 -16 -31 -21c-4 -10 -10 -20 -18 -28v0l-51 -52c-40 -40 -105 -40 -145 0s-40 105 0 145l52 52v-1c8 8 17 14 27 18c5 11 13 23 22 32l52 51v0c40 36 101 36 140 -3zM140 82l37 38c-17 4 -33 13 -46 26s-23 30 -27 47
l-37 -38v0c-20 -20 -20 -53 0 -73s53 -20 73 0v0zM168 183c9 -9 21 -14 33 -15c-1 12 -6 24 -15 33s-21 14 -33 15c1 -12 6 -24 15 -33zM290 232v0c17 20 16 51 -3 70s-50 20 -70 3v0l-3 -3v0v0l-38 -38c17 -4 33 -13 46 -26s23 -30 27 -47l38 38v0v0z" />
    <glyph glyph-name="uniF166" unicode="&#xf166;" horiz-adv-x="431"
d="M414 345c10 0 17 -8 17 -18v-16c0 -10 -7 -17 -17 -17h-320c-10 0 -17 7 -17 17v16c0 10 7 18 17 18h320zM414 217c10 0 17 -7 17 -17v-16c0 -10 -7 -17 -17 -17h-320c-10 0 -17 7 -17 17v16c0 10 7 17 17 17h320zM414 90c10 0 17 -7 17 -17v-16c0 -10 -7 -18 -17 -18
h-320c-10 0 -17 8 -17 18v16c0 10 7 17 17 17h320zM0 319c0 17 9 26 26 26s25 -9 25 -26s-8 -25 -25 -25s-26 8 -26 25zM0 197c0 17 9 26 26 26s25 -9 25 -26s-8 -25 -25 -25s-26 8 -26 25zM0 65c0 17 9 25 26 25s25 -8 25 -25s-8 -26 -25 -26s-26 9 -26 26z" />
    <glyph glyph-name="uniF167" unicode="&#xf167;" horiz-adv-x="423"
d="M29 333l-9 -9l-6 7l17 17h10v-55h-12v40zM21 210c-6 0 -10 -2 -14 -6l-7 8c5 6 13 9 21 9c12 0 21 -7 21 -18c0 -9 -8 -18 -22 -28h22v-10h-41v9c22 17 29 22 29 29c0 5 -4 7 -9 7zM30 65c6 -1 13 -5 13 -13c0 -9 -8 -16 -21 -16c-10 0 -18 4 -22 9l6 8c4 -4 10 -7 15 -7
c7 0 11 3 11 7s-3 7 -11 7h-7v10h7c6 0 10 2 10 6s-4 6 -10 6c-5 0 -10 -1 -14 -5l-6 7c4 5 11 9 21 9c13 0 20 -6 20 -15c0 -7 -6 -12 -12 -13zM406 346c10 0 17 -7 17 -17v-16c0 -10 -7 -18 -17 -18h-320c-10 0 -17 8 -17 18v16c0 10 7 17 17 17h320zM406 219
c10 0 17 -8 17 -18v-16c0 -10 -7 -17 -17 -17h-320c-10 0 -17 7 -17 17v16c0 10 7 18 17 18h320zM406 91c10 0 17 -7 17 -17v-16c0 -10 -7 -18 -17 -18h-320c-10 0 -17 8 -17 18v16c0 10 7 17 17 17h320z" />
    <glyph glyph-name="uniF168" unicode="&#xf168;" horiz-adv-x="332"
d="M321 103c6 0 11 -6 11 -12v-1v-53c0 -6 -5 -11 -11 -11v0h-182v0c-6 0 -11 5 -11 11v0v53v1c0 6 5 12 11 12v0v0h182v0zM65 103c6 0 12 -6 12 -12v0v0v-54v0c0 -6 -6 -11 -12 -11v0h-53v0v0c-6 0 -12 5 -12 11v0v54v0v0c0 6 6 12 12 12v0v0h53v0zM321 231
c6 0 11 -6 11 -12v-1v-53c0 -6 -5 -11 -11 -11v0h-182v0c-6 0 -11 5 -11 11v0v53v1c0 6 5 12 11 12v0v0h182v0zM65 231c6 0 12 -6 12 -12v0v0v-54v0c0 -6 -6 -11 -12 -11v0h-53v0v0c-6 0 -12 5 -12 11v0v54v0v0c0 6 6 12 12 12v0v0h53v0zM128 293v0v53v1c0 6 5 11 11 11v0v0
h182v0c6 0 11 -5 11 -11v-1v-53c0 -6 -5 -12 -11 -12v0h-182v0c-6 0 -11 6 -11 12v0zM65 358c6 0 12 -5 12 -11v0v0v-54v0c0 -6 -6 -12 -12 -12v0h-53v0v0c-6 0 -12 6 -12 12v0v54v0v0c0 6 6 11 12 11v0v0h53v0z" />
    <glyph glyph-name="uniF169" unicode="&#xf169;" horiz-adv-x="332"
d="M0 293v53v1c0 6 6 11 12 11v0v0h309v0c6 0 11 -5 11 -11v0v-54v0c0 -6 -5 -12 -11 -12v0h-309v0c-6 0 -12 6 -12 12v0zM321 230c6 0 11 -5 11 -11v0v-54v0c0 -6 -5 -11 -11 -11v0h-309v0c-6 0 -12 5 -12 11v0v53v1c0 6 6 11 12 11v0v0h309v0zM321 103c6 0 11 -6 11 -12v0
v-54v0c0 -6 -5 -11 -11 -11v0h-309v0c-6 0 -12 5 -12 11v0v53v1c0 6 6 12 12 12v0v0h309v0z" />
    <glyph glyph-name="uniF16A" unicode="&#xf16a;" horiz-adv-x="356"
d="M342 222c7 0 14 -7 14 -14v-197c0 -7 -7 -14 -14 -14h-329c-7 0 -13 7 -13 14v197c0 7 6 14 13 14h19h22v43c0 67 54 122 121 122s122 -55 122 -122v0v-43h26h19zM126 265v-43h99v43v1v0v0c0 27 -23 49 -50 49c-28 0 -49 -22 -49 -50z" />
    <glyph glyph-name="uniF16B" unicode="&#xf16b;" horiz-adv-x="346"
d="M346 327v-137c0 -2 -1 -5 -3 -6s-5 -2 -7 -1l-130 44c-3 1 -5 3 -5 6s1 6 3 8l30 21l5 4c-18 14 -41 23 -66 23c-40 0 -75 -22 -93 -55v0c-4 -6 -12 -9 -18 -5l-42 24v0c-6 3 -8 11 -5 17v0c31 56 90 93 158 93c50 0 95 -20 128 -53l2 2l31 22c2 2 5 1 8 0s4 -4 4 -7z
M326 131c6 -3 9 -11 6 -17v0c-31 -56 -91 -93 -159 -93c-50 0 -94 20 -127 53l-3 -2l-30 -22c-2 -2 -5 -1 -8 0s-5 4 -5 7v137c0 2 1 5 3 6s5 2 7 1l130 -44c3 -1 6 -3 6 -6s-1 -6 -3 -8l-31 -21l-5 -4c18 -14 41 -23 66 -23c40 0 76 22 94 55v0c4 6 12 9 18 5l41 -24v0z
" />
    <glyph glyph-name="uniF16C" unicode="&#xf16c;" horiz-adv-x="397"
d="M233 395c91 0 164 -74 164 -164s-73 -164 -164 -164c-26 0 -51 6 -73 17l-82 -82v1c-8 -8 -20 -14 -33 -14c-25 0 -45 20 -45 45c0 13 6 25 14 33h-1l80 79c-15 25 -24 54 -24 85c0 90 73 164 164 164zM234 132c57 0 103 45 103 102s-46 102 -103 102s-102 -45 -102 -102
s45 -102 102 -102z" />
    <glyph glyph-name="uniF16D" unicode="&#xf16d;" horiz-adv-x="394"
d="M381 345c7 0 13 -6 13 -13v-24c0 -2 -1 -2 -2 -3s-4 -2 -5 -3l-188 -110c-1 0 -1 -1 -2 -1s0 1 -1 1l-194 110c-1 1 -2 2 -2 3v27c0 7 6 13 13 13h368zM393 265c1 -1 1 -1 1 -2v-177c0 -1 -1 -3 -2 -3l-1 -1c-1 0 -1 0 -2 1l-107 115c-1 1 0 2 0 3s0 2 1 2l106 62
c1 1 3 1 4 0zM253 182l127 -137c1 -1 1 -3 0 -4s-2 -2 -3 -2h-364c-2 0 -4 1 -6 2c-1 1 -2 2 -2 3s0 2 1 3l142 131c1 1 3 2 4 1l38 -22c5 -3 11 -2 16 1l42 25c1 1 4 0 5 -1zM117 194l-112 -103c-1 -1 -1 -1 -2 -1h-1c-1 1 -2 2 -2 3v167c0 1 1 2 2 3s2 1 3 0l111 -64
c1 -1 2 -1 2 -2s0 -2 -1 -3z" />
    <glyph glyph-name="uniF16E" unicode="&#xf16e;" horiz-adv-x="466"
d="M49 347c0 28 14 42 42 42s43 -14 43 -42s-15 -42 -43 -42s-42 14 -42 42zM172 293c5 -1 9 -2 12 -6s6 -8 6 -13v-120v0c0 -5 -3 -10 -6 -13s-7 -5 -12 -5s-10 2 -13 5s-5 8 -5 13v0v82v1c0 4 -2 6 -6 6s-6 -2 -6 -6v-1v-53v-55v-110c0 -6 -2 -11 -6 -15s-8 -6 -14 -6
s-11 2 -15 6s-6 9 -6 15v110v0c0 4 -2 6 -6 6s-6 -2 -6 -6v0v-110c0 -6 -2 -11 -6 -15s-9 -6 -15 -6s-11 2 -15 6s-6 9 -6 15v165v53v1v0c0 4 -1 6 -5 6s-6 -2 -6 -6v0v-1v-82v0c0 -5 -2 -10 -5 -13s-8 -5 -13 -5s-10 2 -13 5s-5 8 -5 13v0v120v0c0 5 2 10 6 14s9 5 14 5v0
h152v0zM305 347c0 28 14 42 42 42s43 -14 43 -42s-15 -43 -43 -43s-42 15 -42 43zM466 171v0v-3c0 -3 0 -6 -2 -9s-4 -5 -7 -7s-6 -2 -9 -2c-8 0 -14 3 -17 11v0l-21 78v0c-1 3 -2 4 -5 4c-4 0 -6 -1 -6 -5v-2v0l33 -124c1 -1 1 -3 1 -4h1h-1h1c0 -6 -4 -10 -10 -10h-25v-82
c0 -6 -2 -11 -6 -15s-9 -6 -15 -6s-11 2 -15 6s-6 9 -6 15v82h-12v-82c0 -4 -1 -8 -3 -11s-4 -6 -7 -8s-7 -2 -11 -2c-6 0 -11 2 -15 6s-6 9 -6 15v82h-24c-6 0 -10 4 -10 10v0v0v0c0 1 0 3 1 4l33 124v1v1v0v1v0c-1 3 -2 4 -5 4s-5 -1 -6 -4v0v0l-21 -78v0
c-3 -8 -9 -11 -17 -11c-5 0 -9 1 -13 5s-5 8 -5 13v3v0l29 106v0v2v0c3 9 9 14 19 14v0h134v0v0c10 0 16 -5 19 -14v0l1 -2v0z" />
    <glyph glyph-name="uniF16F" unicode="&#xf16f;" horiz-adv-x="342"
d="M342 354v0v-106v0c0 -4 -4 -8 -8 -8h-35c-4 0 -8 4 -8 8v28l-46 -46c14 -21 23 -46 23 -74c0 -74 -60 -134 -134 -134s-134 60 -134 134s60 134 134 134c28 0 54 -9 76 -24l44 45h-26v0c-4 0 -8 4 -8 8v0v0v35c0 4 4 8 8 8v0h106v0c4 0 8 -4 8 -8v0zM134 73
c46 0 83 37 83 83s-37 83 -83 83s-83 -37 -83 -83s37 -83 83 -83z" />
    <glyph glyph-name="uniF170" unicode="&#xf170;" horiz-adv-x="190"
d="M49 346c0 28 14 42 42 42s43 -14 43 -42s-15 -42 -43 -42s-42 14 -42 42zM172 292c5 -1 9 -2 12 -6s6 -9 6 -14v-120v0c0 -5 -3 -9 -6 -12s-7 -5 -12 -5s-10 2 -13 5s-5 7 -5 12v0v83v1c0 4 -2 6 -6 6s-6 -2 -6 -6v-1v-53v-55v-110c0 -6 -2 -11 -6 -15s-8 -6 -14 -6
s-11 2 -15 6s-6 9 -6 15v110v0c0 4 -2 6 -6 6s-6 -2 -6 -6v0v-110c0 -6 -2 -11 -6 -15s-9 -6 -15 -6s-11 2 -15 6s-6 9 -6 15v165v53v1v0c0 4 -1 6 -5 6s-6 -2 -6 -6v0v-1v-83v0c0 -5 -2 -9 -5 -12s-8 -5 -13 -5s-10 2 -13 5s-5 7 -5 12v0v120v0c0 4 1 7 3 10s4 6 7 8
s6 2 10 2v0h152v0z" />
    <glyph glyph-name="uniF171" unicode="&#xf171;" horiz-adv-x="430"
d="M430 407v-430v0v-1v-2h-1c-1 -6 -6 -11 -13 -11v0h-402v0c-8 0 -14 6 -14 14v0v0v283v0l161 161v0v0v0v0h255v0v0v0v0c8 0 14 -6 14 -14v0zM305 370l-19 -33l93 -92v125h-74zM161 246h-110v-31l86 -85l139 240h-101v-110v0v0c0 -8 -6 -14 -14 -14v0zM51 14h19l53 93
l-72 72v-165zM99 14h280v194l-106 106zM276 215c34 0 62 -28 62 -62c0 -14 -4 -27 -12 -37l-39 -67c0 -1 -1 -2 -2 -3v0v0c-2 -2 -5 -4 -8 -4c-4 0 -8 1 -10 4v0v1v1l-40 69c-7 10 -12 22 -12 36c0 34 27 62 61 62zM276 122c17 0 30 13 30 30s-13 31 -30 31s-30 -14 -30 -31
s13 -30 30 -30z" />
    <glyph glyph-name="uniF172" unicode="&#xf172;" horiz-adv-x="289"
d="M144 395c80 0 145 -65 145 -145c0 -33 -12 -63 -30 -87l-90 -157c-1 -2 -3 -4 -4 -6l-1 -2v1c-5 -6 -12 -10 -20 -10c-9 0 -16 4 -21 11v0v0c-1 1 -1 2 -2 3l-92 161c-18 24 -29 54 -29 86c0 80 64 145 144 145zM143 177c39 0 71 32 71 71s-32 71 -71 71s-71 -32 -71 -71
s32 -71 71 -71z" />
    <glyph glyph-name="uniF173" unicode="&#xf173;" horiz-adv-x="385"
d="M76 302c8 0 14 -6 14 -14v-127v0c-1 -7 -7 -12 -14 -12c-42 0 -76 35 -76 77s34 76 76 76zM385 364v0v0v-24v-236v-23v0v-2c0 -8 -6 -14 -14 -14c-4 0 -7 2 -9 4l-134 77h-98c-7 0 -13 6 -14 13v0v132c0 8 6 14 14 14h110l123 70c2 2 5 3 8 3c8 0 14 -6 14 -14zM224 41v0
c3 -6 2 -13 -3 -17v-1l-26 -14v0c-1 -1 -1 -2 -2 -2c-6 -4 -14 -1 -18 5v0l-1 1v0v0l-49 85v1s-1 0 -1 1c-4 7 -2 15 5 19c2 1 4 2 6 2v0h37v0c4 0 7 -3 9 -6v0l43 -73v-1v0v0z" />
    <glyph glyph-name="uniF174" unicode="&#xf174;" horiz-adv-x="261"
d="M261 196c0 -65 -48 -119 -111 -128v-28h68v0c11 0 19 -8 19 -19s-8 -20 -19 -20v0h-175v0c-11 0 -20 9 -20 20s9 19 20 19v0h68v28c-63 9 -111 63 -111 128v0v74c0 11 8 19 19 19s20 -8 20 -19v-73v0c0 -51 40 -92 91 -92s92 41 92 92v73c0 11 8 19 19 19s20 -8 20 -19
v-73v0v0v-1v0zM65 197v2v0v119v0c1 36 29 65 65 65s65 -29 66 -65v0v-119v0v-2c0 -36 -30 -65 -66 -65s-65 29 -65 65z" />
    <glyph glyph-name="uniF175" unicode="&#xf175;" horiz-adv-x="384"
d="M281 219c3 0 5 -2 5 -5v-44c0 -3 -2 -5 -5 -5h-178c-3 0 -5 2 -5 5v44c0 3 2 5 5 5h178zM192 333c-78 0 -141 -63 -141 -141s63 -141 141 -141s141 63 141 141s-63 141 -141 141zM192 384v0c106 0 192 -86 192 -192s-86 -192 -192 -192s-192 86 -192 192s86 192 192 192z
" />
    <glyph glyph-name="uniF176" unicode="&#xf176;" horiz-adv-x="414"
d="M404 251c6 0 10 -5 10 -11v-96c0 -6 -4 -11 -10 -11h-394c-6 0 -10 5 -10 11v96c0 6 4 11 10 11h394z" />
    <glyph glyph-name="uniF177" unicode="&#xf177;" horiz-adv-x="224"
d="M211 295c7 0 13 -6 13 -13v-307c0 -7 -6 -13 -13 -13h-199v0c-7 0 -12 6 -12 13v307c0 7 5 13 12 13v0h199zM112 -24c7 0 13 5 13 12s-6 13 -13 13s-12 -6 -12 -13s5 -12 12 -12zM173 13v0v231h-122v-231h122zM212 368v0v-1v0v0l-9 -9v0v0h-1v0c-3 -3 -7 -3 -10 -1v0v1v0
v0l-5 5v0c-41 41 -109 40 -150 -1v0v0l-6 -5v0c-3 -2 -6 -2 -9 0v0l-10 9v0c-3 3 -3 7 -1 10v1h1v0v0l5 5v0v0c52 52 138 53 190 1v0v-1v0v0l5 -5v0c2 -3 2 -6 0 -9zM174 339c2 -3 2 -6 0 -9v0l-9 -10v0v0v0v0c-3 -3 -8 -3 -11 -1v0v1v0v0l-5 5v0c-21 20 -54 20 -74 0v-1v0
l-6 -5v0c-3 -2 -6 -2 -9 0v0l-10 9v1c-3 3 -3 7 -1 10v0l6 5v0v1c31 31 82 31 114 0v0l5 -6v0z" />
    <glyph glyph-name="uniF178" unicode="&#xf178;" horiz-adv-x="224"
d="M211 358c7 0 13 -5 13 -12v-308c0 -7 -6 -12 -13 -12h-199v0c-7 0 -12 5 -12 12v308c0 7 5 12 12 12v0h199zM112 39c7 0 13 5 13 12s-6 13 -13 13s-12 -6 -12 -13s5 -12 12 -12zM173 77v0v230h-122v-230h122z" />
    <glyph glyph-name="uniF179" unicode="&#xf179;" horiz-adv-x="471"
d="M442 381c16 0 29 -12 29 -28v-252c0 -16 -13 -29 -29 -29h-156v-44h44c5 0 9 -3 9 -8v-9c0 -5 -4 -8 -9 -8h-194c-5 0 -8 3 -8 8v9c0 5 3 8 8 8h48v44h-155c-16 0 -29 13 -29 29v252c0 16 13 28 29 28h413zM51 123h368v208h-368v-208z" />
    <glyph glyph-name="uniF17A" unicode="&#xf17a;" horiz-adv-x="467"
d="M465 48c1 -2 2 -4 2 -6c0 -7 -5 -13 -12 -14v0h-256h-103h-87v1c-1 0 -1 -1 -2 -1c-4 0 -7 3 -7 7c0 2 0 4 1 5l8 13v1h1l81 140c2 4 6 7 11 7s9 -3 11 -7v0l27 -48l114 196c4 8 12 14 21 14s16 -5 20 -13v0l171 -295h-1z" />
    <glyph glyph-name="uniF17B" unicode="&#xf17b;" horiz-adv-x="382"
d="M366 378c9 0 16 -7 16 -16v-253c0 -31 -31 -56 -69 -56s-69 25 -69 56s31 56 69 56c6 0 12 -1 18 -2v135h-193v-236c0 -31 -31 -56 -69 -56s-69 25 -69 56s31 56 69 56c6 0 12 -1 18 -2v246c0 9 8 16 17 16v0h262v0z" />
    <glyph glyph-name="uniF17C" unicode="&#xf17c;" horiz-adv-x="397"
d="M397 52v0c0 -7 -6 -13 -13 -13v-1h-25v0c-7 0 -13 6 -13 13v1v0v120l-170 -99c-2 -2 -5 -2 -7 -2c-5 0 -8 3 -8 8v78l-146 -84c-2 -2 -4 -2 -6 -2c-5 0 -9 3 -9 8v226v0c0 5 4 8 9 8c2 0 4 0 6 -2l146 -84v78v0c0 5 3 8 8 8c2 0 5 0 7 -2l170 -99v119v2c0 7 6 13 13 13
l1 -1h24v0c7 0 12 -4 13 -11v0v-2v0v0v-280z" />
    <glyph glyph-name="uniF17D" unicode="&#xf17d;" horiz-adv-x="384"
d="M192 384c106 0 192 -86 192 -192s-86 -192 -192 -192s-192 86 -192 192s86 192 192 192zM192 51c34 0 66 13 90 33l-24 24c-3 0 -4 1 -6 3v0l-4 7l-21 21l-16 -28h-1c-2 -2 -4 -4 -7 -4c-5 0 -10 5 -10 10c0 2 1 4 2 6l13 23h-21h-23l13 -23c1 -2 3 -4 3 -6
c0 -5 -5 -10 -10 -10c-3 0 -6 2 -8 4v0l-21 36l-21 -36v0c-2 -2 -5 -4 -8 -4c-5 0 -10 5 -10 10c0 2 2 4 3 6l17 31c-4 4 -7 16 -7 31c0 7 1 14 2 19l-32 18v0c-2 1 -3 3 -3 6c0 4 3 7 7 7c1 0 3 0 4 -1v0l31 -18v1v0h25l-65 65c-20 -24 -33 -56 -33 -90
c0 -78 63 -141 141 -141zM300 102c20 24 33 56 33 90c0 78 -63 141 -141 141c-34 0 -66 -13 -90 -33l83 -83h26l30 30h-1l17 30l10 -17h1v0l14 -8c4 -2 6 -6 6 -10v-11l11 -11c2 -1 3 -4 3 -6s-1 -4 -2 -5v0l-6 -6v0h-6h-22l-8 -8c0 -3 1 -6 1 -10c0 -16 -4 -29 -9 -32l3 -4
z" />
    <glyph glyph-name="uniF17E" unicode="&#xf17e;" horiz-adv-x="384"
d="M272 213c3 0 5 -3 5 -6v-31v0c0 -3 -2 -5 -5 -5v0v0h-4v0c-3 0 -6 2 -6 5v0v1v0v0v30v0c0 3 3 6 6 6v0h4v0zM293 213c3 0 6 -3 6 -6v0v-30v-1v0c0 -3 -3 -5 -6 -5v0v0h-3v0c-3 0 -6 2 -6 5v0v31v0c0 3 3 6 6 6v0h3v0zM192 384c106 0 192 -86 192 -192s-86 -192 -192 -192
s-192 86 -192 192s86 192 192 192zM192 51c34 0 66 13 90 33l-87 87h-104c-3 0 -6 3 -6 6v0v30v0v0c0 3 3 6 6 6v0h62l-69 69c-20 -24 -33 -56 -33 -90c0 -78 63 -141 141 -141zM300 102c20 24 33 56 33 90c0 78 -63 141 -141 141c-34 0 -66 -13 -90 -33l87 -87h60v0
c3 0 6 -3 6 -6v0v-30v0c0 -3 -3 -6 -6 -6h-18z" />
    <glyph glyph-name="uniF17F" unicode="&#xf17f;" horiz-adv-x="360"
d="M301 46c5 0 9 -4 9 -9v0v-45v0v-13c0 -5 -4 -8 -9 -8h-8h-276h-8c-5 0 -9 3 -9 8v13v271v5v13l133 132h9v0h147v0h12c5 0 9 -3 9 -8v-21v0v-127v0v0v0v0c0 -5 -4 -9 -9 -9h-33c-5 0 -9 4 -9 9v0v105h-108v-90c0 -5 -4 -9 -9 -9h-91v-241h208v15v0c0 5 4 9 9 9v0h33z
M351 174c5 0 9 -4 9 -9v-36c0 -5 -4 -8 -9 -8h-40v-40c0 -5 -4 -9 -9 -9h-35c-5 0 -9 4 -9 9v40h-40c-5 0 -9 3 -9 8v36c0 5 4 9 9 9h40v40c0 5 4 8 9 8h35c5 0 9 -3 9 -8v-40h40z" />
    <glyph glyph-name="uniF180" unicode="&#xf180;" horiz-adv-x="361"
d="M310 410v-392v0v-13c0 -5 -4 -9 -9 -9h-8h-276h-8c-5 0 -9 4 -9 9v13v271v5v12l133 133h9v0h147v0h12c5 0 9 -4 9 -9v-20v0zM51 47h208v341h-108v-91c0 -5 -4 -8 -9 -8h-91v-242zM354 321c4 0 7 -4 7 -8v-360c0 -4 -3 -8 -7 -8h-272v0v0c-4 0 -7 4 -7 8v17h253
c4 0 8 4 8 8v343h18z" />
    <glyph glyph-name="uniF181" unicode="&#xf181;" horiz-adv-x="310"
d="M106 119c-7 0 -12 -4 -12 -11s5 -12 12 -12c4 0 8 3 9 7l12 -6c-3 -6 -9 -14 -21 -14c-15 0 -26 10 -26 25s11 24 26 24c12 0 18 -7 21 -14l-12 -5c-1 4 -5 6 -9 6zM148 118c0 -4 26 0 26 -18c0 -10 -7 -17 -20 -17c-10 0 -17 3 -22 8l7 10c4 -3 9 -6 15 -6c3 0 6 1 6 3
c0 5 -27 -1 -27 18c0 8 7 16 20 16c8 0 15 -3 20 -7l-8 -10c-4 3 -10 5 -14 5c-3 0 -3 -1 -3 -2zM204 99l10 32h16l-17 -47h-18l-18 47h16zM310 384v-392v0v-13c0 -5 -4 -8 -9 -8h-8h-276h-8c-5 0 -9 3 -9 8v13v271v5v13l133 132h9v0h147v0h12c5 0 9 -3 9 -8v-21v0zM51 22
h208v340h-108v-90c0 -5 -4 -9 -9 -9h-91v-241z" />
    <glyph glyph-name="uniF182" unicode="&#xf182;" horiz-adv-x="361"
d="M301 46c5 0 9 -4 9 -9v0v-45v0v-13c0 -5 -4 -8 -9 -8h-8h-276h-8c-5 0 -9 3 -9 8v13v271v5v13l133 132h9v0h147v0h12c5 0 9 -3 9 -8v-21v0v-127v0v0v0v0c0 -5 -4 -9 -9 -9h-33c-5 0 -9 4 -9 9v0v105h-108v-90c0 -5 -4 -9 -9 -9h-91v-241h208v15v0c0 5 4 9 9 9v0h33z
M330 147l28 -28c3 -3 3 -10 0 -13l-25 -25c-3 -3 -9 -3 -12 0l-29 29l-28 -29c-3 -3 -9 -3 -12 0l-25 25c-3 3 -3 10 0 13l28 28l-28 28c-3 3 -3 10 0 13l25 25c3 3 9 3 12 0l28 -28l28 28c3 3 10 3 13 0l25 -25c3 -3 3 -10 0 -13z" />
    <glyph glyph-name="uniF183" unicode="&#xf183;" horiz-adv-x="310"
d="M310 384v-392v0v-13c0 -5 -4 -8 -9 -8h-8h-276h-8c-5 0 -9 3 -9 8v13v271v5v13l133 132h9v0h147v0h12c5 0 9 -3 9 -8v-21v0zM51 22h208v340h-108v-90c0 -5 -4 -9 -9 -9h-91v-241zM97 131c15 0 26 -8 26 -23s-11 -24 -26 -24h-21v47h21zM97 96c7 0 11 6 11 12
s-3 11 -11 11h-7v-23h7zM155 132c15 0 26 -9 26 -24s-11 -25 -26 -25s-26 10 -26 25s11 24 26 24zM155 96c7 0 11 5 11 12s-4 11 -11 11s-12 -4 -12 -11s5 -12 12 -12zM213 119c-7 0 -12 -4 -12 -11s5 -12 12 -12c4 0 8 3 9 7l12 -6c-3 -6 -9 -14 -21 -14
c-15 0 -26 10 -26 25s11 24 26 24c12 0 18 -7 21 -14l-12 -5c-1 4 -5 6 -9 6z" />
    <glyph glyph-name="uniF184" unicode="&#xf184;" horiz-adv-x="428"
d="M301 46c5 0 9 -4 9 -9v0v-45v0v-13c0 -5 -4 -8 -9 -8h-8h-276h-8c-5 0 -9 3 -9 8v13v271v5v13l133 132h9v0h147v0h12c5 0 9 -3 9 -8v-21v0v-84v0v0v-1v0c0 -5 -4 -8 -9 -8h-33c-5 0 -9 3 -9 8v0v63h-108v-90c0 -5 -4 -9 -9 -9h-91v-241h208v15v0c0 5 4 9 9 9v0h33z
M425 248c3 -3 3 -9 0 -12l-163 -163v0v0l-82 -22v0c-3 -2 -7 -2 -10 1c-2 2 -3 6 -2 9v0l22 84l1 -1l-1 1l163 163c3 3 10 3 13 0zM195 78l49 13l-36 36z" />
    <glyph glyph-name="uniF185" unicode="&#xf185;" horiz-adv-x="458"
d="M456 112c2 -1 2 -3 2 -5v0c0 -2 0 -4 -2 -5l-94 -68c-2 -1 -5 -2 -7 -1s-3 4 -3 6v32h-86c-4 0 -7 3 -7 7v58c0 4 3 6 7 6h85v32c0 2 2 5 4 6s4 1 6 0zM301 46c5 0 9 -4 9 -9v0v-45v0v-13c0 -5 -4 -8 -9 -8h-8h-276h-8c-5 0 -9 3 -9 8v13v271v5v13l133 132h9v0h147v0h12
c5 0 9 -3 9 -8v-21v0v-207v0v0v-1v0c0 -5 -4 -8 -9 -8h-33c-5 0 -9 3 -9 8v0v186h-108v-90c0 -5 -4 -9 -9 -9h-91v-241h208v15v0c0 5 4 9 9 9v0h33zM107 119c-7 0 -11 -4 -11 -11s4 -12 11 -12c4 0 8 3 9 7l13 -6c-3 -6 -10 -14 -22 -14c-15 0 -26 10 -26 25s11 24 26 24
c12 0 19 -7 22 -14l-13 -5c-1 4 -5 6 -9 6zM156 95c3 0 5 1 5 3c0 5 -26 -1 -26 18c0 8 6 16 19 16c8 0 15 -3 20 -7l-7 -10c-4 3 -10 5 -14 5c-3 0 -4 -1 -4 -2c0 -4 26 0 26 -18c0 -10 -7 -17 -20 -17c-10 0 -17 3 -22 8l8 10c4 -3 9 -6 15 -6zM195 131l10 -32l10 32h16
l-17 -47h-18l-17 47h16z" />
    <glyph glyph-name="uniF186" unicode="&#xf186;" horiz-adv-x="458"
d="M456 112c2 -1 2 -3 2 -5v0c0 -2 0 -4 -2 -5l-94 -68c-2 -1 -5 -2 -7 -1s-3 4 -3 6v32h-86c-4 0 -7 3 -7 7v58c0 4 3 6 7 6h85v32c0 2 2 5 4 6s4 1 6 0zM301 46c5 0 9 -4 9 -9v0v-45v0v-13c0 -5 -4 -8 -9 -8h-8h-276h-8c-5 0 -9 3 -9 8v13v271v5v13l133 132h9v0h147v0h12
c5 0 9 -3 9 -8v-21v0v-207v0v0v-1v0c0 -5 -4 -8 -9 -8h-33c-5 0 -9 3 -9 8v0v186h-108v-90c0 -5 -4 -9 -9 -9h-91v-241h208v15v0c0 5 4 9 9 9v0h33zM77 131h22c15 0 26 -8 26 -23s-11 -24 -26 -24h-22v47zM110 108c0 6 -3 11 -11 11h-7v-23h7c7 0 11 6 11 12zM131 108
c0 15 10 24 25 24s26 -9 26 -24s-11 -25 -26 -25s-25 10 -25 25zM168 108c0 7 -5 11 -12 11s-11 -4 -11 -11s4 -12 11 -12s12 5 12 12zM214 119c-7 0 -11 -4 -11 -11s4 -12 11 -12c4 0 8 3 9 7l13 -6c-3 -6 -10 -14 -22 -14c-15 0 -26 10 -26 25s11 24 26 24
c12 0 19 -7 22 -14l-13 -5c-1 4 -5 6 -9 6z" />
    <glyph glyph-name="uniF187" unicode="&#xf187;" horiz-adv-x="458"
d="M456 112c2 -1 2 -3 2 -5v0c0 -2 0 -4 -2 -5l-94 -68c-2 -1 -5 -2 -7 -1s-3 4 -3 6v32h-86c-4 0 -7 3 -7 7v58c0 4 3 6 7 6h85v32c0 2 2 5 4 6s4 1 6 0zM301 46c5 0 9 -4 9 -9v0v-45v0v-13c0 -5 -4 -8 -9 -8h-8h-276h-8c-5 0 -9 3 -9 8v13v271v5v13l133 132h9v0h147v0h12
c5 0 9 -3 9 -8v-21v0v-207v0v0v-1v0c0 -5 -4 -8 -9 -8h-33c-5 0 -9 3 -9 8v0v186h-108v-90c0 -5 -4 -9 -9 -9h-91v-241h208v15v0c0 5 4 9 9 9v0h33zM83 131h26c11 0 17 -7 17 -16s-6 -16 -17 -16h-11v-15h-15v47zM111 115c0 3 -2 4 -4 4h-9v-8h9c2 0 4 2 4 4zM133 131h21
c15 0 26 -8 26 -23s-11 -24 -26 -24h-21v47zM166 108c0 6 -4 11 -12 11h-7v-23h7c7 0 12 6 12 12zM225 119h-22v-5h21v-12h-21v-18h-14v47h36v-12z" />
    <glyph glyph-name="uniF188" unicode="&#xf188;" horiz-adv-x="458"
d="M456 112c2 -1 2 -3 2 -5v0c0 -2 0 -4 -2 -5l-94 -68c-2 -1 -5 -2 -7 -1s-3 4 -3 6v32h-86c-4 0 -7 3 -7 7v58c0 4 3 6 7 6h85v32c0 2 2 5 4 6s4 1 6 0zM301 46c5 0 9 -4 9 -9v0v-45v0v-13c0 -5 -4 -8 -9 -8h-8h-276h-8c-5 0 -9 3 -9 8v13v271v5v13l133 132h9v0h147v0h12
c5 0 9 -3 9 -8v-21v0v-207v0v0v-1v0c0 -5 -4 -8 -9 -8h-33c-5 0 -9 3 -9 8v0v186h-108v-90c0 -5 -4 -9 -9 -9h-91v-241h208v15v0c0 5 4 9 9 9v0h33z" />
    <glyph glyph-name="uniF189" unicode="&#xf189;" horiz-adv-x="310"
d="M9 263c-5 0 -9 4 -9 9v9l133 132h9c5 0 9 -3 9 -8v-133c0 -5 -4 -9 -9 -9h-133zM301 413c5 0 9 -3 9 -8v-426c0 -5 -4 -8 -9 -8h-292c-5 0 -9 3 -9 8v224v0c1 4 5 8 9 8h184v0v0c5 0 9 4 9 9v0v0v187v0c1 4 4 6 8 6h91z" />
    <glyph glyph-name="uniF18A" unicode="&#xf18a;" horiz-adv-x="389"
d="M381 329c4 0 8 -4 8 -8v-360c0 -4 -4 -8 -8 -8h-271v0v0c-4 0 -8 4 -8 8v18h253c4 0 8 3 8 7v343h18zM338 12c0 -4 -4 -8 -8 -8h-271v0c-4 0 -8 4 -8 8v18h253c4 0 8 3 8 7v343h18c4 0 8 -4 8 -8v-360zM287 63c0 -4 -4 -8 -8 -8h-271c-4 0 -8 4 -8 8v360c0 4 4 8 8 8h271
c4 0 8 -4 8 -8v-360z" />
    <glyph glyph-name="uniF18B" unicode="&#xf18b;" horiz-adv-x="310"
d="M110 131c11 0 17 -7 17 -16s-6 -16 -17 -16h-11v-15h-15v47h26zM108 111c2 0 4 2 4 4c0 3 -2 4 -4 4h-9v-8h9zM155 131c15 0 26 -8 26 -23s-11 -24 -26 -24h-21v47h21zM155 96c7 0 12 6 12 12s-4 11 -12 11h-7v-23h7zM190 84v47h36v-12h-22v-5h21v-12h-21v-18h-14z
M310 384v-392v0v-13c0 -5 -4 -8 -9 -8h-8h-276h-8c-5 0 -9 3 -9 8v13v271v5v13l133 132h9v0h147v0h12c5 0 9 -3 9 -8v-21v0zM51 22h208v340h-108v-90c0 -5 -4 -9 -9 -9h-91v-241z" />
    <glyph glyph-name="uniF18C" unicode="&#xf18c;" horiz-adv-x="360"
d="M310 86v0v0v-94v0v-13c0 -5 -4 -8 -9 -8h-8h-276h-8c-5 0 -9 3 -9 8v13v271v5v13l133 132h9v0h147v0h12c5 0 9 -3 9 -8v-21v0v-176v0v0v0v0c0 -5 -4 -9 -9 -9h-33c-5 0 -9 4 -9 9v0v154h-108v-90c0 -5 -4 -9 -9 -9h-91v-241h208v64v0c0 5 4 9 9 9v0h33c5 0 9 -4 9 -9v0v0
zM351 174c5 0 9 -4 9 -9v-36c0 -5 -4 -8 -9 -8h-133c-5 0 -9 3 -9 8v36c0 5 4 9 9 9h133z" />
    <glyph glyph-name="uniF18D" unicode="&#xf18d;" horiz-adv-x="403"
d="M403 384l-1 -392v0v-13c0 -5 -3 -8 -8 -8h-8h-277h-8c-5 0 -9 3 -9 8v13v45v0c0 5 4 9 9 9v0h34c5 0 8 -4 8 -9v0v-15h209v340h-109v-90c0 -5 -4 -9 -9 -9h-91v-9v0c0 -5 -3 -8 -8 -8v0h-34c-5 0 -8 3 -8 8h-1v9v5v13l133 132h9v0h147v0h13c5 0 8 -3 8 -8v-21h1zM199 146
c0 -45 -37 -82 -82 -82c-13 0 -26 3 -37 9l-41 -41v0c-4 -4 -10 -7 -16 -7c-13 0 -23 9 -23 22c0 7 3 13 7 17v0l40 40c-7 12 -12 27 -12 42c0 45 37 82 82 82s82 -37 82 -82zM70 146c0 -26 21 -48 47 -48s48 22 48 48s-22 47 -48 47s-47 -21 -47 -47z" />
    <glyph glyph-name="uniF18E" unicode="&#xf18e;" horiz-adv-x="310"
d="M310 384v-392v0v-13c0 -5 -4 -8 -9 -8h-8h-276h-8c-5 0 -9 3 -9 8v13v271v5v13l133 132h9v0h147v0h12c5 0 9 -3 9 -8v-21v0zM51 22h208v340h-108v-90c0 -5 -4 -9 -9 -9h-91v-241z" />
    <glyph glyph-name="uniF18F" unicode="&#xf18f;" horiz-adv-x="439"
d="M389 203c5 -5 5 -13 0 -18l-203 -203v0c-5 -5 -13 -5 -18 0l-164 164c-5 5 -5 14 0 19v0l139 139l-57 58c-5 5 -8 11 -8 18c0 14 12 26 26 26c7 0 13 -3 18 -8l57 -58l27 27c5 5 14 5 19 0v0v0l164 -164v0zM288 156l38 38l-110 110l-149 -148h221zM430 70
c6 -8 9 -17 9 -27c0 -26 -21 -48 -47 -48s-48 22 -48 48c0 11 4 20 10 28l30 52c0 1 1 0 1 1v1v0c2 2 4 3 7 3s5 -2 7 -4v0v0v-1z" />
    <glyph glyph-name="uniF190" unicode="&#xf190;" horiz-adv-x="356"
d="M77 -5c-14 0 -32 5 -50 23c-24 24 -27 47 -25 62c2 18 11 34 27 50l150 151c42 42 70 26 83 13c16 -16 26 -42 -14 -82l-138 -139l-27 27l138 139c21 21 16 26 14 28s-8 8 -29 -13l-150 -151c-7 -7 -15 -17 -16 -28c-1 -10 3 -19 14 -30c13 -13 23 -11 26 -11
c9 1 20 8 30 18l178 178c15 15 24 29 28 42c5 19 -1 38 -20 57c-20 20 -50 40 -98 -8l-165 -165c-7 -7 -20 -7 -27 0s-7 20 0 27l165 165c51 51 106 54 152 8c36 -36 36 -71 30 -94c-6 -20 -18 -39 -38 -59l-178 -178c-16 -16 -34 -27 -51 -29c-3 0 -6 -1 -9 -1z" />
    <glyph glyph-name="uniF191" unicode="&#xf191;" horiz-adv-x="228"
d="M65 346c6 0 12 -5 12 -11v0v0v-286v0v0c0 -6 -6 -11 -12 -11v0h-54v0v0c-6 0 -11 5 -11 11v0v0v286v0v0c0 6 5 11 11 11v0h53v0h1zM228 49v0v0c0 -6 -5 -11 -11 -11v0h-55v0v0c-6 0 -11 5 -11 11v0v0v286v0v0c0 6 5 11 11 11v0h53v0h2c6 0 11 -5 11 -11v0v0v-286z" />
    <glyph glyph-name="uniF192" unicode="&#xf192;" horiz-adv-x="363"
d="M104 240c0 -29 -23 -52 -52 -52s-52 23 -52 52s23 51 52 51s52 -22 52 -51zM311 281c29 0 52 -23 52 -52s-23 -51 -52 -51s-52 22 -52 51s23 52 52 52zM264 172l3 -4c16 -19 35 -44 35 -84c0 -37 -31 -68 -68 -68c-21 0 -40 10 -53 27c-13 -17 -33 -27 -54 -27
c-37 0 -68 31 -68 68c0 40 19 65 35 84l3 4c5 6 13 13 22 21c16 17 37 27 62 27c28 0 52 -13 68 -33c6 -5 11 -11 15 -15zM128 310c0 38 19 58 57 58s57 -20 57 -58s-19 -57 -57 -57s-57 19 -57 57z" />
    <glyph glyph-name="uniF193" unicode="&#xf193;" horiz-adv-x="315"
d="M73 88c-2 -9 -11 -16 -20 -16h-40c-9 0 -15 8 -13 16l58 248c2 8 10 16 19 16h85c18 0 34 -2 48 -4c14 -3 25 -7 35 -13s17 -14 22 -24s8 -22 8 -37c0 -33 -13 -60 -41 -80s-66 -31 -116 -31h-12c-9 0 -17 -7 -19 -15zM106 232c-2 -9 3 -16 12 -16h10c22 0 40 5 52 14
s18 22 18 38c0 11 -4 19 -12 24s-19 8 -35 8h-13c-9 0 -18 -7 -20 -15zM307 271c5 -10 8 -21 8 -36c0 -33 -14 -61 -42 -81s-65 -30 -115 -30h-12c-9 0 -17 -8 -19 -16l-14 -60c-2 -9 -11 -16 -20 -16h-40c-9 0 -15 8 -13 16l2 8h28c9 0 17 6 19 15l14 61c2 8 10 15 19 15
h12c50 0 88 11 116 31s41 47 41 80c0 15 -3 27 -8 37v1c1 0 1 -1 2 -1c10 -6 17 -14 22 -24z" />
    <glyph glyph-name="uniF194" unicode="&#xf194;" horiz-adv-x="405"
d="M401 298c5 -5 5 -14 0 -19l-253 -254v0v0l-128 -34v0c-5 -2 -12 -2 -16 2s-5 9 -3 14v0l34 130h1v0l253 254c5 5 15 5 20 0zM43 33l77 20l-57 56z" />
    <glyph glyph-name="uniF195" unicode="&#xf195;" horiz-adv-x="443"
d="M442 356h1v-330h-1c-1 -11 -10 -21 -22 -21c-1 0 -3 1 -4 1v-1h-393v0c-12 0 -22 10 -23 21v0v2v0v0v328v0c0 13 10 23 23 23v0h393v-1c1 0 3 1 4 1c13 0 22 -10 22 -23zM392 56v272h-341v-218l28 48c1 3 5 5 8 5s6 -2 7 -5v0l19 -33l77 134c2 5 9 10 15 10s11 -4 14 -9
v0l116 -202v0c0 -1 1 -1 1 -2h56zM262 250c0 34 18 52 52 52s52 -18 52 -52s-18 -51 -52 -51s-52 17 -52 51z" />
    <glyph glyph-name="uniF196" unicode="&#xf196;" horiz-adv-x="384"
d="M192 384c106 0 192 -86 192 -192s-86 -192 -192 -192s-192 86 -192 192s86 192 192 192zM192 51c78 0 141 63 141 141s-63 141 -141 141s-141 -63 -141 -141s63 -141 141 -141zM276 197c2 -1 2 -3 2 -5s0 -4 -2 -5v0l-120 -69v0h-3c-3 0 -5 1 -5 4v0v138v0v1c0 3 2 6 5 6
c1 0 2 -1 3 -1v0l120 -69v0z" />
    <glyph glyph-name="uniF197" unicode="&#xf197;" horiz-adv-x="415"
d="M389 35h-364c-14 0 -25 12 -25 26v262c0 14 11 26 25 26h364c14 0 26 -12 26 -26v-262c0 -14 -12 -26 -26 -26zM364 86v212h-313v-212h313zM283 191l-61 -36l-61 -35v71v70l61 -35z" />
    <glyph glyph-name="uniF198" unicode="&#xf198;" horiz-adv-x="276"
d="M276 192c0 -4 -2 -8 -5 -10v0l-254 -146v0c-2 -1 -4 -2 -6 -2c-6 0 -10 4 -11 10v0v293v0v1c0 6 5 12 11 12c2 0 5 -1 7 -2l252 -146c4 -2 6 -6 6 -10z" />
    <glyph glyph-name="uniF199" unicode="&#xf199;" horiz-adv-x="371"
d="M362 245c5 0 9 -5 9 -10v-86c0 -3 -1 -5 -3 -7s-3 -3 -6 -3h-124v-123c0 -2 -1 -5 -3 -7s-4 -3 -6 -3h-87c-2 0 -4 1 -6 3s-3 5 -3 7v123h-124c-2 0 -4 1 -6 3s-3 5 -3 7v86c0 5 4 10 9 10h124v123c0 5 4 10 9 10h87c5 0 9 -5 9 -10v-123h124z" />
    <glyph glyph-name="uniF19A" unicode="&#xf19a;" horiz-adv-x="221"
d="M221 75c0 -2 -1 -4 -2 -5v0c-12 -12 -31 -20 -61 -20c-36 0 -50 18 -75 18c-14 0 -32 -7 -48 -16v0h-2c-2 0 -4 1 -5 3v0h-1v0l-14 30v0v0v0v2c0 2 1 4 3 5v0v1v0c26 12 45 30 45 51c0 8 -2 15 -5 22h-50v0v0c-3 0 -6 2 -6 5v0v22v0c0 3 3 6 6 6v0v0h28
c-10 14 -19 30 -19 50c0 52 51 85 100 85c46 0 79 -16 96 -50v0c1 -1 1 -2 1 -3c0 -2 -1 -4 -3 -5v0l-37 -22v0v0h-2c-2 0 -5 1 -6 3c-7 17 -23 29 -42 29c-24 0 -43 -15 -43 -38c0 -21 11 -34 20 -49h60v0c3 0 5 -2 5 -5v0v-22v0c0 -3 -2 -6 -5 -6v0h-47c0 -2 1 -6 1 -8
c0 -19 -12 -37 -27 -46c6 2 14 4 20 4c24 0 34 -14 54 -14c18 0 30 8 35 15v0c1 1 3 2 5 2s4 -2 5 -4v0v0v0l15 -37v0c0 -1 1 -2 1 -3z" />
    <glyph glyph-name="uniF19B" unicode="&#xf19b;" horiz-adv-x="384"
d="M328 332c35 -35 56 -82 56 -135c0 -106 -86 -192 -192 -192s-192 86 -192 192c0 51 20 98 53 132c2 3 6 6 10 6c3 0 5 -1 7 -3v0h1v0l21 -19v-1v0v0c2 -2 4 -4 4 -7s-2 -7 -4 -9v0c-25 -26 -41 -60 -41 -99c0 -78 63 -141 141 -141s141 63 141 141c0 38 -15 73 -40 98
c-3 2 -5 6 -5 10c0 3 1 5 3 7v0v0v1l21 19v0h1v0c2 2 4 3 7 3s6 -1 8 -3v0zM178 127c-6 0 -11 5 -11 11v0v0v230v0v0c0 6 5 11 11 11v0h28v0v0c6 0 11 -5 11 -11v0v0v-230v0v0c0 -6 -5 -11 -11 -11v0v0h-28v0v0v0v0z" />
    <glyph glyph-name="uniF19C" unicode="&#xf19c;" horiz-adv-x="397"
d="M388 313c5 0 9 -3 9 -8v-226v0c0 -5 -4 -8 -9 -8c-2 0 -4 0 -6 2l-146 84v-78v0c0 -5 -3 -8 -8 -8c-2 0 -4 0 -6 2l-171 99v-119v-2c0 -7 -6 -13 -13 -13l-1 1h-23h-1c-7 0 -12 4 -13 11v0v2v0v0v280v0c0 7 6 13 13 13v1h25v0c7 0 13 -6 13 -13v-1v0v-120l170 99
c2 2 5 2 7 2c5 0 8 -3 8 -8v-78l146 84c2 2 4 2 6 2z" />
    <glyph glyph-name="uniF19D" unicode="&#xf19d;" horiz-adv-x="325"
d="M324 109c3 -5 1 -11 -4 -14v0l-166 -96v0c-5 -3 -12 -1 -15 4v1l-137 238v0h-1c-1 2 -1 4 -1 6v0v65v0c0 4 2 7 5 9l109 63v0v0l1 1v0c3 1 6 1 9 -1v0l57 -32v0c2 -1 3 -2 4 -4h1l137 -239v0zM93 298c9 5 12 18 7 27s-18 12 -27 7s-12 -18 -7 -27s18 -12 27 -7z" />
    <glyph glyph-name="uniF19E" unicode="&#xf19e;" horiz-adv-x="395"
d="M393 100c3 -5 2 -12 -3 -15v0l-167 -96v0c-5 -3 -11 -1 -14 4v1l-7 12l153 88v0c5 3 7 10 4 15v0v0l-104 179l-45 79l41 -24v0c2 -1 3 -2 4 -4v0l138 -238v0v-1zM320 104v0l-166 -96v0c-5 -3 -12 -1 -15 4v1l-137 238v0h-1c-1 2 -1 5 -1 7v0v65v0c0 4 2 7 5 9l109 62v0v1
h1v0c3 1 6 1 9 -1v1l57 -33v0c2 -1 3 -2 4 -4h1l137 -239v0h1c3 -5 1 -12 -4 -15zM93 307c9 5 12 18 7 27s-18 12 -27 7s-12 -18 -7 -27s18 -12 27 -7z" />
    <glyph glyph-name="uniF19F" unicode="&#xf19f;" horiz-adv-x="414"
d="M414 268v0v-188c0 -5 -4 -10 -9 -10h-67v79v0h-26h-210h-25v0v-79h-68v0c-5 0 -9 5 -9 10v188v0c0 5 4 9 9 9v0h68v0v110c0 5 4 10 9 10h242c5 0 10 -5 10 -10v-110v0v0h67c5 0 9 -4 9 -9zM312 235v0v127c0 5 -4 9 -9 9h-192v0c-5 0 -9 -4 -9 -9v-127h210zM103 -3v126
h209v-126c0 -5 -5 -10 -10 -10h-190c-5 0 -9 5 -9 10z" />
    <glyph glyph-name="uniF1A0" unicode="&#xf1a0;" horiz-adv-x="384"
d="M192 384c106 0 192 -86 192 -192s-86 -192 -192 -192s-192 86 -192 192s86 192 192 192zM192 51c34 0 66 13 90 33l-198 198c-20 -24 -33 -56 -33 -90c0 -78 63 -141 141 -141zM300 102c20 24 33 56 33 90c0 78 -63 141 -141 141c-34 0 -66 -13 -90 -33z" />
    <glyph glyph-name="uniF1A1" unicode="&#xf1a1;" horiz-adv-x="391"
d="M391 363v0v-32v0c0 -5 -4 -9 -9 -9h-373v0c-5 0 -9 4 -9 9v0v32v0c0 5 4 10 9 10v0h373c5 0 9 -5 9 -10v0zM359 296c5 0 9 -4 9 -9v0v-190c0 -11 -9 -21 -21 -21h-139v-27c5 -4 8 -10 8 -17c0 -12 -9 -21 -21 -21s-21 9 -21 21c0 7 4 13 9 17v27h-139
c-12 0 -22 10 -22 21v190v0v0c0 5 4 9 9 9h328z" />
    <glyph glyph-name="uniF1A2" unicode="&#xf1a2;" horiz-adv-x="293"
d="M293 198v0v0v-3h-1c-1 -5 -6 -8 -11 -8v0v-1c-4 1 -8 2 -13 2c-28 0 -50 -22 -50 -50s22 -50 50 -50c5 0 9 1 13 2v-1c6 0 11 -4 12 -10v0v-67v0c0 -11 -10 -20 -21 -20h-65v0c-6 0 -12 6 -12 12c0 2 0 3 1 4v0c1 4 2 9 2 14c0 28 -22 50 -50 50s-50 -22 -50 -50
c0 -5 1 -10 2 -14v0v-1v0c0 -1 1 -2 1 -3c0 -6 -5 -12 -11 -12h-68h-2c-11 0 -20 9 -20 20v1v66v0v2c0 6 6 12 12 12c1 0 3 -1 4 -1v0c6 -3 12 -4 19 -4c28 0 50 22 50 50s-22 50 -50 50c-7 0 -14 -1 -20 -4c-1 0 -2 -1 -3 -1c-6 0 -12 6 -12 12v0v68v1c0 11 9 21 20 21v0
h75v0c14 1 25 12 25 27c0 6 -1 12 -5 17v0c-4 6 -6 13 -6 21c0 23 20 42 43 42s42 -19 42 -42c0 -8 -2 -15 -6 -21h1c-4 -5 -6 -11 -6 -17c0 -15 11 -26 25 -27v0h1h1h1h62v-1c11 0 20 -9 20 -20v0v-66z" />
    <glyph glyph-name="uniF1A3" unicode="&#xf1a3;" horiz-adv-x="435"
d="M52 224c20 0 35 -15 35 -37s-19 -41 -41 -41c-24 0 -46 19 -46 53c0 39 21 73 53 96v0c1 0 2 1 3 1s2 -1 3 -2v0l22 -13v0c2 -1 2 -3 2 -5s-1 -4 -3 -5v0v0v0c-16 -9 -34 -30 -39 -48c2 1 7 1 11 1zM157 224c20 0 35 -15 35 -37s-19 -41 -41 -41c-24 0 -46 19 -46 53
c0 39 21 73 53 96h1c1 0 1 1 2 1s3 -1 4 -2v0l21 -13v0c2 -1 3 -3 3 -5s-2 -4 -4 -5v0v0v0c-16 -9 -33 -30 -38 -48c2 1 6 1 10 1zM284 238c24 0 46 -19 46 -53c0 -39 -21 -73 -53 -96v0c-1 0 -2 -1 -3 -1s-2 1 -3 2v0l-22 13v0c-2 1 -2 3 -2 5s1 4 3 5v0v0v0
c16 9 34 30 39 48c-2 -1 -6 -1 -10 -1c-20 0 -36 15 -36 37s19 41 41 41zM389 238c24 0 46 -19 46 -53c0 -39 -21 -73 -53 -96v0c-1 0 -1 -1 -2 -1s-3 1 -4 2v0l-21 13v0c-2 1 -3 3 -3 5s1 4 3 5v0h1v0c16 9 33 30 38 48c-2 -1 -6 -1 -10 -1c-20 0 -35 15 -35 37
s18 41 40 41z" />
    <glyph glyph-name="uniF1A4" unicode="&#xf1a4;" horiz-adv-x="380"
d="M190 382c105 0 190 -85 190 -190s-85 -190 -190 -190s-190 85 -190 190s85 190 190 190zM190 130c34 0 62 28 62 62s-28 62 -62 62s-63 -28 -63 -62s29 -62 63 -62z" />
    <glyph glyph-name="uniF1A5" unicode="&#xf1a5;" horiz-adv-x="355"
d="M354 337l1 -137c0 -2 -2 -5 -4 -6s-5 -2 -7 -1l-130 44c-3 1 -5 3 -5 6s1 6 3 8l31 22l5 3c-18 14 -41 23 -66 23c-59 0 -108 -48 -108 -107s49 -107 108 -107c36 0 69 17 89 47c3 4 9 6 13 3l45 -32c2 -1 4 -4 4 -6s0 -4 -1 -6c-34 -50 -91 -80 -151 -80
c-100 0 -181 81 -181 181s81 181 181 181c50 0 95 -20 128 -53l2 2l31 22c2 2 5 1 8 0s4 -4 4 -7z" />
    <glyph glyph-name="uniF1A6" unicode="&#xf1a6;" horiz-adv-x="471"
d="M123 210c2 -3 3 -7 5 -10l-53 -24c-14 -7 -23 -22 -23 -39v-56h-41c-6 0 -11 6 -11 13v54c0 5 3 10 7 12l69 32c-16 10 -28 29 -28 52c0 33 23 59 51 59c8 0 15 -2 21 -5c-2 -4 -3 -9 -4 -13c-3 -10 -4 -19 -4 -28c0 -16 4 -33 11 -47zM287 270c-1 4 -1 8 -2 13
c-3 14 -10 27 -18 38h195v0v0c5 0 9 -4 9 -9v0v-33v0c0 -5 -4 -9 -9 -9v0v0h-175zM471 108v0v-33v0c0 -5 -4 -9 -9 -9v0v0h-114v4v11v36h114v0v0c5 0 9 -4 9 -9zM462 219c5 0 9 -4 9 -9v0v-33v0c0 -5 -4 -9 -9 -9v0v0h-126c-3 3 -7 6 -11 8l-53 25c2 4 5 7 7 11c1 2 1 5 2 7
h181v0v0zM314 153c5 -3 9 -9 9 -16v-56v-11c0 -9 -6 -16 -14 -16h-218c-8 0 -14 7 -14 16v11v56c0 7 4 14 9 16l61 28l24 11c-11 7 -19 17 -25 29c-5 11 -9 23 -9 36c0 8 1 14 3 21c8 30 32 52 60 52c29 0 53 -22 60 -53c2 -6 3 -13 3 -20c0 -12 -3 -24 -8 -34
c-6 -13 -14 -23 -25 -30l25 -12z" />
    <glyph glyph-name="uniF1A7" unicode="&#xf1a7;" horiz-adv-x="431"
d="M431 336v-33v0c0 -5 -4 -9 -9 -9v0v0h-235v0c-5 0 -9 4 -9 9v0v33v0v0v0v0c0 5 4 9 9 9v0h235v0v0c5 0 9 -4 9 -9v0zM431 259v-32v0c0 -5 -4 -10 -9 -10v0v0h-235v0c-5 0 -9 5 -9 10v0v32v0v0v0v0c0 5 4 9 9 9v0h235v0v0c5 0 9 -4 9 -9v0zM127 336v-109v0v0
c0 -5 -4 -10 -9 -10v0v0h-109v0c-5 0 -9 5 -9 10v0v0v109v0c0 5 4 9 9 9h1h108v0c5 0 9 -4 9 -9v0zM431 157v-32v0c0 -5 -4 -9 -9 -9v0v0h-235v0c-5 0 -9 4 -9 9v0v32v0v0v0v0c0 5 4 9 9 9v1h235v-1v0c5 0 9 -4 9 -9v0zM431 81v-33v0c0 -5 -4 -9 -9 -9v0v0h-235v0
c-5 0 -9 4 -9 9v1v32v0v0v0v0c0 5 4 9 9 9v0h235v0v0c5 0 9 -4 9 -9v0zM127 157v-109v0v0c0 -5 -4 -9 -9 -9v0h-109v0c-5 0 -9 4 -9 9v0v0v109v0c0 5 4 10 9 10l1 -1h108v1c5 0 9 -5 9 -10v0z" />
    <glyph glyph-name="uniF1A8" unicode="&#xf1a8;" horiz-adv-x="406"
d="M351 197c-2 -2 -5 -2 -7 -1l-131 42c-3 1 -5 3 -5 6s1 5 3 7l30 23l5 4c-19 14 -42 21 -67 21c-59 -1 -106 -50 -105 -109s51 -106 110 -105h10v0v0c7 0 14 -6 14 -13v0v0l1 -47v0c0 -3 -2 -7 -4 -9v0v0v-1l-2 -1v0c-1 0 -1 -1 -2 -1v0c-3 -1 -5 -2 -5 -2h-11
c-100 -2 -183 78 -185 178s78 182 178 184c50 1 96 -18 129 -50l2 1l30 23c2 2 5 2 8 1s4 -4 4 -7l3 -138c0 -2 -1 -4 -3 -6zM291 142h18l2 -99h-21l-1 72l-16 -17l-13 12zM365 145c28 1 41 -25 41 -50s-11 -51 -39 -52s-42 25 -42 50s12 51 40 52zM366 61c14 0 19 15 19 33
s-6 32 -20 32s-19 -15 -19 -33s6 -32 20 -32z" />
    <glyph glyph-name="uniF1A9" unicode="&#xf1a9;" horiz-adv-x="372"
d="M363 313c5 0 9 -3 9 -8v-226v0c0 -5 -4 -8 -9 -8c-2 0 -4 0 -6 2l-145 84v-78v0c0 -5 -4 -8 -9 -8c-2 0 -4 0 -6 2l-192 111v0c-3 1 -5 4 -5 8c0 3 1 5 4 7v1l192 111c2 2 5 2 7 2c5 0 9 -3 9 -8v-78l145 84c2 2 4 2 6 2z" />
    <glyph glyph-name="uniF1AA" unicode="&#xf1aa;" horiz-adv-x="339"
d="M48 115c25 0 45 -20 45 -45s-20 -44 -45 -44s-45 19 -45 44s20 45 45 45zM34 239c101 0 183 -81 184 -182v0v-18v0c-1 -8 -8 -14 -16 -15v-1h-31v0c-9 0 -17 7 -18 16v0v18v0c-1 65 -54 118 -119 118h-1v0h-17v0c-8 1 -15 7 -16 15v0v32v0c0 9 7 16 16 17v0h17v0h1z
M339 57v0v0v-18v0c-1 -8 -7 -14 -15 -15v-1h-32v0c-9 0 -16 7 -17 16v0v18v0c-1 132 -109 239 -241 239h-1v0h-17v0c-8 1 -15 8 -16 16v0v31v0c0 9 7 16 16 17v1h17v0h1c168 0 304 -136 305 -304z" />
    <glyph glyph-name="uniF1AB" unicode="&#xf1ab;" horiz-adv-x="482"
d="M482 28v-2c0 -7 -6 -12 -13 -12v0v0h-457c-7 0 -12 5 -12 12v1v0v25c0 7 5 12 12 12h39l169 293c4 8 12 13 21 13s17 -5 21 -13v0l169 -293h38v0c7 0 13 -5 13 -12v0v0v-24zM228 319l-29 -51h84l-29 51h-26zM169 217l-29 -51h202l-29 51h-144zM81 64h320l-30 51h-261z
" />
    <glyph glyph-name="uniF1AC" unicode="&#xf1ac;" horiz-adv-x="379"
d="M204 251v110h53v-110h-53zM375 350c2 -2 4 -5 4 -9v-1v-324v0v0c0 -7 -5 -12 -12 -12v0h-39v169v0c0 6 -6 11 -12 11v0v0v0v0h-253v0h-1h-1v0c-5 -1 -10 -5 -10 -11v0v-1v0v0v0v-156v0v-12h-39v0c-7 0 -12 5 -12 12v0v168v49v135v0c0 7 5 12 12 12v0v0h67v0c2 0 3 0 5 -2
c1 -1 2 -2 2 -3v0v-130v0c0 -6 6 -12 12 -12v0h175h1c7 0 13 5 13 12v0v130v0c0 1 1 3 2 4s3 1 4 1v0v0v0h46v0c4 0 7 -2 9 -4l27 -26v0z" />
    <glyph glyph-name="uniF1AD" unicode="&#xf1ad;" horiz-adv-x="358"
d="M298 252c33 0 60 -27 60 -60s-27 -60 -60 -60c-7 0 -14 2 -21 4l-157 -91v-3c0 -33 -27 -61 -60 -61s-60 28 -60 61s27 60 60 60c13 0 26 -5 36 -12l144 84c-2 6 -2 12 -2 18s0 12 2 18l-145 84c-10 -7 -22 -12 -35 -12c-33 0 -60 27 -60 60s27 61 60 61s60 -28 60 -61
v-4l156 -90c7 3 14 4 22 4z" />
    <glyph glyph-name="uniF1AE" unicode="&#xf1ae;" horiz-adv-x="384"
d="M356 130c15 0 28 -12 28 -27s-13 -28 -28 -28c-10 0 -19 6 -24 15h-80l-35 -61c2 -4 3 -7 3 -12c0 -15 -12 -28 -27 -28s-28 13 -28 28c0 5 1 9 3 13l-34 60h-78c-5 -7 -14 -12 -23 -12c-15 0 -27 12 -27 27s12 28 27 28c2 0 5 0 7 -1l35 60l-35 60c-4 -2 -8 -3 -12 -3
c-15 0 -28 13 -28 28s13 27 28 27c10 0 19 -5 24 -14h79l37 63c-3 4 -5 9 -5 14c0 15 13 28 28 28s27 -13 27 -28c0 -6 -1 -11 -4 -15l36 -62h78c5 7 13 12 22 12c15 0 28 -13 28 -28s-13 -27 -28 -27c-2 0 -5 0 -7 1l-34 -60l35 -60c4 2 8 2 12 2z" />
    <glyph glyph-name="uniF1AF" unicode="&#xf1af;" horiz-adv-x="344"
d="M172 394l172 -99v0v-118c-1 -98 -76 -178 -172 -188c-96 10 -171 90 -172 188v0v118v0l172 100v-1zM172 41c67 10 120 66 121 136v0v6h-121v152l-121 -70v-82h121v-142z" />
    <glyph glyph-name="uniF1B0" unicode="&#xf1b0;" horiz-adv-x="441"
d="M441 250v0v-216c0 -11 -9 -20 -20 -20v0v0h-401v0c-11 0 -20 9 -20 20v0v216v0c1 10 10 18 20 18h31c32 61 97 102 170 102s137 -41 169 -102h31v0c10 0 19 -8 20 -18zM112 268h217c-26 31 -64 51 -108 51s-83 -20 -109 -51z" />
    <glyph glyph-name="uniF1B1" unicode="&#xf1b1;" horiz-adv-x="425"
d="M95 33c0 20 10 30 30 30s31 -10 31 -30s-11 -30 -31 -30s-30 10 -30 30zM307 33c0 20 10 30 30 30s30 -10 30 -30s-10 -30 -30 -30s-30 10 -30 30zM333 165v0h-200v-25h270v0c5 0 9 -3 12 -6s5 -7 5 -12v0v-15v0v-1v-2v0c-1 -9 -8 -14 -17 -15v0h-303v0v0
c-5 0 -9 2 -12 5s-6 7 -6 12v0v224h-63v0v0h-1c-5 0 -10 2 -13 5s-5 8 -5 13v0v17v0c1 4 3 9 6 12s8 4 12 4v0h1v0h97v0v0c5 0 9 -2 12 -5s5 -8 5 -13v0v-33h54h146h75v0c5 0 9 -2 12 -5s5 -8 5 -13c0 -3 0 -5 -1 -7v0l-75 -130v0c-3 -7 -9 -10 -16 -10z" />
    <glyph glyph-name="uniF1B2" unicode="&#xf1b2;" horiz-adv-x="462"
d="M74 129l44 45l55 -55l-54 -54c-4 -7 -12 -12 -21 -12v0h-87v0c-5 1 -9 5 -10 10h-1v56h1c1 6 6 11 12 11c1 0 2 -1 3 -1h58zM460 290c2 -1 2 -3 2 -5v0c0 -2 0 -4 -2 -5l-95 -69c-2 -1 -5 -1 -7 0s-4 4 -4 6v30h-53l-38 -37l-54 54l54 54v0c4 3 10 6 15 6v0h76v29
c0 2 2 5 4 6s4 0 6 -1zM459 104c2 -1 3 -3 3 -5v0c0 -2 -1 -4 -3 -5l-95 -68c-2 -1 -5 -2 -7 -1s-3 4 -3 6v29h-77v0c-5 0 -10 3 -14 6v0l-189 189h-58c-1 0 -2 -1 -3 -1c-6 0 -12 5 -13 11v0v56v0c1 5 6 9 11 10v0h87v0c9 0 17 -5 21 -12l182 -182h53v30c0 2 1 5 3 6
s5 1 7 0z" />
    <glyph glyph-name="uniF1B3" unicode="&#xf1b3;" horiz-adv-x="399"
d="M390 78c12 -12 13 -31 1 -43c-7 -7 -18 -10 -27 -8c2 -9 -1 -19 -8 -26c-12 -12 -30 -11 -42 1s-12 29 -1 41l-45 45v-31c-19 -15 -42 -24 -68 -24s-50 9 -69 24v31l-45 -45c11 -12 11 -30 -1 -42s-30 -12 -42 0c-7 7 -10 17 -8 26c-9 -2 -19 2 -26 9c-12 12 -12 30 0 42
c12 11 30 12 42 1l46 46c-13 19 -20 42 -20 67s7 48 20 67l-46 46c-12 -11 -30 -11 -42 1s-12 31 0 43c7 7 17 10 26 8c-2 9 1 19 8 26c12 12 31 11 43 -1s12 -29 1 -41l46 -46c19 13 42 20 67 20s48 -7 67 -20l46 46c-11 12 -10 30 1 42c12 12 30 12 42 0
c7 -7 11 -17 9 -26c9 2 18 -2 25 -9c12 -12 12 -30 0 -42s-29 -12 -41 -1l-46 -46c13 -19 20 -42 20 -67s-7 -48 -20 -67l46 -46c12 11 29 10 41 -1zM166 146c13 0 24 10 24 23s-11 24 -24 24s-23 -11 -23 -24s10 -23 23 -23zM233 146c13 0 24 10 24 23s-11 24 -24 24
s-23 -11 -23 -24s10 -23 23 -23z" />
    <glyph glyph-name="uniF1B4" unicode="&#xf1b4;"
d="M262 227c10 0 17 -3 23 -10s9 -14 9 -23s-3 -18 -8 -24s-13 -9 -23 -9c-6 0 -10 1 -15 3s-10 4 -14 7s-9 6 -13 10s-8 8 -11 12l11 11s8 8 12 11s9 7 14 9s10 3 15 3zM151 204l11 -11c-3 -4 -6 -8 -10 -12s-9 -7 -13 -10s-9 -5 -14 -7s-10 -3 -15 -3c-10 0 -17 3 -23 9
s-8 14 -8 23s3 17 8 24s13 10 22 10c5 0 10 -1 15 -3s9 -6 14 -9s9 -7 13 -11zM333 376c20 0 36 -16 36 -36v-296c0 -20 -16 -36 -36 -36h-297c-20 0 -36 16 -36 36v296c0 20 16 36 36 36h297zM326 166c3 9 5 19 5 29s-2 19 -5 28s-7 17 -13 23s-14 11 -22 15s-17 6 -28 6
c-8 0 -17 -1 -24 -4s-14 -7 -20 -11s-12 -9 -17 -15s-11 -12 -16 -18c-5 6 -11 12 -16 18s-11 11 -17 15s-13 8 -20 11s-15 4 -24 4c-11 0 -21 -2 -29 -6s-15 -9 -21 -15s-10 -14 -13 -23s-5 -19 -5 -29s2 -20 5 -29s8 -17 14 -23s13 -11 21 -15s18 -6 29 -6c9 0 17 1 24 4
s13 5 19 9s12 10 17 15l16 16c5 -6 10 -11 16 -16s12 -11 18 -15s13 -6 20 -9s15 -4 23 -4c11 0 19 2 28 6s16 8 22 15s10 15 13 24z" />
    <glyph glyph-name="uniF1B5" unicode="&#xf1b5;"
d="M232 355h137v-326zM0 355h136l-136 -326v326zM125 94l59 141l87 -206h-57l-26 65h-63z" />
    <glyph glyph-name="uniF1B6" unicode="&#xf1b6;" horiz-adv-x="377"
d="M199 264h7c1 0 1 1 3 1c-1 10 0 21 -2 31c-2 12 -11 20 -24 22c-20 3 -41 -8 -46 -29c-2 -7 -6 -9 -13 -8c-13 2 -26 3 -39 5c-9 1 -11 4 -9 13c6 27 22 47 47 58c38 17 75 18 113 1c25 -11 38 -31 39 -58c1 -35 2 -69 1 -104c0 -19 4 -36 17 -51c5 -6 5 -10 -1 -15
c-11 -9 -22 -20 -33 -29c-6 -5 -12 -5 -17 1c-9 9 -16 18 -25 27c-5 -5 -11 -9 -17 -14c-21 -17 -45 -22 -70 -19c-39 4 -62 30 -63 70c-1 44 22 74 66 87c21 6 44 9 66 11zM198 163c13 20 10 41 10 64c-11 -1 -22 -2 -33 -4c-26 -5 -40 -23 -38 -50c1 -20 15 -32 34 -29
c12 2 21 9 27 19zM318 85c6 2 11 0 14 -5s2 -10 -3 -14c-7 -5 -15 -10 -22 -14c-41 -24 -85 -37 -126 -38c-50 0 -88 14 -123 38c-19 13 -35 28 -53 42c-5 4 -6 9 -3 13s7 5 13 2c18 -9 36 -19 54 -28c28 -14 57 -25 89 -28c26 -2 52 0 77 5c27 5 53 14 78 25c2 1 3 1 5 2z
M357 124c18 -2 21 -6 19 -24c-2 -19 -9 -35 -22 -49c-2 -2 -3 -4 -5 -4c-3 0 -7 -1 -9 1s-3 6 -2 9c2 8 5 15 7 23c1 4 2 9 3 13s0 6 -4 6h-10v0c-9 -1 -17 -2 -26 -3c-5 -1 -8 0 -10 4c-2 5 0 9 4 12c17 12 35 14 55 12z" />
    <glyph glyph-name="uniF1B7" unicode="&#xf1b7;" horiz-adv-x="338"
d="M223 355c34 -17 57 -51 57 -89h-222c0 38 23 72 57 89l-18 32c-1 2 0 3 2 4s3 1 4 -1l18 -32c15 6 31 10 48 10s33 -4 48 -10l18 32c1 2 2 2 4 1s3 -2 2 -4zM118 307c5 0 10 4 10 9s-5 9 -10 9s-9 -4 -9 -9s4 -9 9 -9zM220 307c5 0 9 4 9 9s-4 9 -9 9s-10 -4 -10 -9
s5 -9 10 -9zM338 238v-103c0 -14 -11 -25 -25 -25s-24 11 -24 25v103c0 14 10 25 24 25s25 -11 25 -25zM279 258v0v-160c0 -10 -5 -18 -13 -23c-4 -2 -8 -3 -13 -3h-18v-55c0 -14 -11 -25 -25 -25c-2 0 -3 1 -5 1c-11 2 -19 12 -19 24v55h-34v-55c0 -12 -8 -22 -19 -24
c-2 0 -3 -1 -5 -1c-12 0 -22 9 -24 20c0 2 -1 3 -1 5v55h-18c-10 0 -19 5 -23 14c-2 4 -3 8 -3 12v160h220v0zM25 263c14 0 24 -11 24 -25v-103v-5c-2 -11 -12 -20 -24 -20c-5 0 -10 1 -14 4c-7 4 -11 12 -11 21v103c0 14 11 25 25 25z" />
    <glyph glyph-name="uniF1B8" unicode="&#xf1b8;" horiz-adv-x="352"
d="M340 259c-69 -38 -58 -137 12 -163c-10 -21 -15 -30 -27 -49c-17 -26 -41 -60 -71 -60c-27 0 -35 18 -71 18s-43 -18 -70 -18c-30 0 -54 30 -71 56c-48 74 -53 160 -23 206c21 33 55 52 86 52c32 0 52 -18 78 -18s41 18 78 18c28 0 58 -16 79 -42zM233 330
c-14 -18 -39 -33 -63 -32c-4 24 7 48 21 65c15 18 40 32 62 34c4 -25 -7 -50 -20 -67z" />
    <glyph glyph-name="uniF1B9" unicode="&#xf1b9;" horiz-adv-x="365"
d="M255 160c6 0 11 -1 15 -5s6 -11 6 -14h-45c2 6 7 19 24 19zM140 136c1 0 14 0 14 -18c0 -15 -9 -18 -16 -18h-41v36h43v0zM331 376c16 0 29 -10 34 -24v-320c-4 -12 -14 -21 -26 -24h-312c-13 3 -23 13 -27 25v318c4 15 18 25 34 25h297zM220 220v-19c0 -1 1 -2 2 -2h64
c1 0 3 1 3 2v19c0 1 -2 3 -3 3h-64c-1 0 -2 -2 -2 -3zM193 115c0 1 0 20 -11 32c-3 3 -6 6 -10 7c7 4 15 12 15 29c0 27 -17 43 -46 43h-80c-1 0 -3 -1 -3 -2v-155c0 -1 2 -2 3 -2h81c3 0 15 0 27 6c11 6 24 18 24 42zM312 117c0 1 4 33 -14 53c-10 11 -24 17 -42 17
c-32 0 -48 -17 -55 -31c-8 -15 -7 -31 -7 -31c0 -1 -2 -26 15 -44c11 -12 26 -18 46 -18v0h3c9 0 53 2 53 44c0 1 -1 3 -2 3h-28c-1 0 -2 0 -2 -1c-1 -1 0 -1 0 -2c0 0 0 -4 -4 -8s-10 -6 -19 -6v0c-2 0 -9 1 -14 4c-6 4 -9 10 -10 18h77c1 0 3 1 3 2zM148 181
c0 -15 -5 -16 -11 -16h-40v30h37h6s8 -1 8 -14z" />
    <glyph glyph-name="uniF1BA" unicode="&#xf1ba;" horiz-adv-x="388"
d="M95 160c0 46 34 69 100 69s99 -23 99 -69s-33 -70 -99 -70s-100 24 -100 70zM333 252c42 -29 60 -64 54 -105c0 -16 -5 -31 -15 -45s-23 -26 -40 -36c-20 -12 -40 -20 -61 -25c-24 -6 -49 -9 -77 -9c-29 0 -55 3 -79 9c-37 14 -66 30 -86 50s-29 47 -29 82v179h58v-99
c38 26 87 40 149 39c49 -3 91 -16 126 -40zM211 64c32 1 60 12 84 34s35 43 33 66c-1 14 -6 27 -13 38s-16 20 -26 27s-21 12 -33 17s-24 7 -34 9s-20 2 -28 2c-44 -2 -78 -13 -101 -33s-33 -42 -31 -66s12 -43 28 -58s34 -25 54 -30s43 -7 67 -6z" />
    <glyph glyph-name="uniF1BB" unicode="&#xf1bb;"
d="M308 376c33 0 61 -28 61 -61v-246c0 -33 -28 -61 -61 -61h-247c-33 0 -61 28 -61 61v246c0 33 28 61 61 61h247zM296 151v58v3l-2 4l-3 2c-4 3 -25 0 -31 5c-4 4 -5 11 -6 20c-2 17 -3 18 -6 24c-10 21 -37 37 -55 39h-50c-39 0 -72 -33 -72 -72v-83c0 -39 33 -71 72 -71
h82c39 0 71 32 71 71zM144 220c-8 0 -14 7 -14 14s6 13 14 13h39c8 0 14 -6 14 -13s-6 -14 -14 -14h-39zM224 166c7 0 14 -7 14 -14s-7 -13 -14 -13h-80c-8 0 -14 6 -14 13s6 14 14 14h80z" />
    <glyph glyph-name="uniF1BC" unicode="&#xf1bc;" horiz-adv-x="348"
d="M174 192h174v-174h-174v174h-174v174h174v-174z" />
    <glyph glyph-name="uniF1BD" unicode="&#xf1bd;"
d="M270 254h31v-57v-71h-28l-50 78l2 -78h-32v84v44h1h4h23l3 -5l47 -76zM333 376c20 0 36 -16 36 -36v-131l-63 50v0h-5h-31h-5v-5v-29l-39 31v1l-2 2h-3h-28h-5v-5v-40l-13 11c-1 3 -4 5 -6 8c-5 7 -11 12 -17 16c-12 7 -23 10 -43 10h-43h-3h-2h-5v-2v-10v-124l143 -115
h-163c-20 0 -36 16 -36 36v296c0 20 16 36 36 36h297zM137 251v0c1 0 4 -1 5 -2v0v0c1 -1 3 -1 4 -2s3 -1 4 -2s3 -2 4 -3c1 0 0 -1 1 -1l2 -2l2 -2l1 -1l2 -2v0v0c1 -1 2 -3 3 -4c8 -11 12 -24 12 -40c0 -39 -24 -64 -60 -64h-51v123v5h20h5h18h3c11 0 18 -1 25 -3z
M144 189c0 23 -11 36 -31 36h-14v-70h14c20 0 31 12 31 34z" />
    <glyph glyph-name="uniF1BE" unicode="&#xf1be;"
d="M166 219c9 -19 45 -93 45 -93l129 35v-118c0 -1 -1 -1 -2 -2s-2 -2 -3 -2h-303c-1 0 -2 1 -3 2s-1 1 -1 2v31l169 48l-48 101c82 18 123 11 165 -23c5 -5 3 -8 0 -9l-67 -16l-25 50c-19 3 -46 -2 -56 -6zM335 348c1 0 2 -1 3 -1c1 -1 2 -2 2 -3v-105l-1 1
c-87 38 -186 21 -206 15c0 1 -15 33 -15 33h-56l20 -46c-23 -7 -48 -25 -54 -30v132c0 1 1 2 2 3c1 0 1 1 2 1h303zM68 131c-13 -3 -12 6 -12 6c-3 55 33 71 41 73l31 -63s-47 -13 -60 -16zM338 376c17 0 31 -14 31 -31v-306c0 -17 -14 -31 -31 -31h-307
c-17 0 -31 14 -31 31v306c0 17 14 31 31 31h307zM350 43v301c0 8 -7 14 -15 14h-303c-8 0 -14 -6 -14 -14v-301c0 -8 6 -14 14 -14h303c8 0 15 6 15 14z" />
    <glyph glyph-name="uniF1BF" unicode="&#xf1bf;" horiz-adv-x="436"
d="M436 253v-173c0 -4 -1 -6 -6 -6h-106c-4 0 -5 1 -5 5v23c0 4 1 5 5 5h62c4 0 5 1 5 5v16h-5h-62c-4 0 -5 2 -5 6v120c0 4 1 5 5 5h107h4c0 -2 1 -4 1 -6zM387 161c3 0 4 2 4 5v49v11h-25c-1 0 -2 -3 -2 -4v-57c0 -3 1 -4 4 -4h19zM300 259c4 0 5 -1 5 -5v-175v-5h-5h-106
c-4 0 -5 1 -5 5v28h5h62c4 0 5 1 5 5v11s-1 6 -6 6c-20 0 -40 -1 -61 -1c-4 0 -5 2 -5 6v120c0 4 1 5 5 5h106zM261 164v59c0 1 -2 3 -3 3h-25c0 -21 1 -41 1 -62c0 -1 1 -3 2 -3h22c1 0 3 2 3 3zM72 305v5h44v-193h-4h-107c-4 0 -5 1 -5 5v132c0 4 1 5 5 5h61c7 0 6 -1 6 6
v40zM67 150c4 0 5 1 5 5v66v5h-27v-74c0 -1 2 -2 3 -2h19zM171 259c3 0 4 0 4 -3v-137v-2h-26h-14c-4 0 -4 1 -4 5v94v38c0 4 0 5 4 5h36zM134 276c-1 0 -3 2 -3 3v31h44v-17v-13c0 -3 0 -4 -3 -4h-38z" />
    <glyph glyph-name="uniF1C0" unicode="&#xf1c0;" horiz-adv-x="371"
d="M186 378c102 0 185 -84 185 -186s-83 -186 -185 -186s-186 84 -186 186s84 186 186 186zM308 292c-3 -5 -29 -39 -88 -63c4 -8 7 -14 10 -22c1 -3 3 -6 4 -9c53 7 105 -4 110 -5c0 37 -14 72 -36 99zM186 350c-13 0 -26 -1 -38 -4c4 -6 34 -45 60 -93c56 21 80 53 83 57
c-28 25 -65 40 -105 40zM118 335c-44 -21 -78 -62 -88 -111c7 0 73 0 147 20c-26 47 -55 85 -59 91zM27 192c0 -41 16 -78 41 -106c4 6 47 78 129 104c2 1 4 1 6 2c-4 9 -8 18 -13 27c-79 -24 -156 -22 -163 -22v-5zM186 33c22 0 42 5 61 13c-2 14 -11 62 -33 120h-1
c-89 -31 -122 -93 -125 -99c27 -21 61 -34 98 -34zM274 60c36 24 61 63 68 107c-5 2 -49 14 -99 6c21 -57 29 -103 31 -113z" />
    <glyph glyph-name="uniF1C1" unicode="&#xf1c1;" horiz-adv-x="384"
d="M144 143h240l-67 -115h-240zM376 149l-132 1l-121 208l133 -1zM120 349l66 -115l-120 -208l-66 115z" />
    <glyph glyph-name="uniF1C2" unicode="&#xf1c2;" horiz-adv-x="396"
d="M117 376l81 -68l-117 -72l-81 64zM0 171l81 65l117 -73l-81 -68zM198 163l118 73l80 -65l-116 -76zM396 300l-80 -64l-118 72l82 68zM198 148l82 -68l35 23v-25l-117 -70l-116 70v25l35 -23z" />
    <glyph glyph-name="uniF1C3" unicode="&#xf1c3;" horiz-adv-x="335"
d="M33 315c-9 0 -17 -2 -23 -5l-4 -2l1 1l73 72v0l-1 -2c-3 -5 -5 -12 -5 -19v0c0 -9 1 -42 1 -42c0 -2 -2 -3 -4 -3h-38v0zM325 322c5 -27 12 -135 9 -171c-5 -57 -14 -90 -18 -101c-18 -56 -33 -58 -77 -58c-56 0 -73 8 -73 53c0 49 24 50 63 49c6 0 -1 -5 -1 -15
s4 -13 -1 -13c-11 0 -27 2 -27 -14c0 -19 10 -19 34 -19c30 0 35 4 35 31c0 45 -13 51 -30 53c-19 2 -38 6 -47 9c-23 8 -22 38 -22 47c0 1 -2 1 -2 0c0 -12 -1 -29 -7 -48c-2 -5 -3 -9 -3 -9c-7 -15 -20 -10 -39 -8s-61 11 -79 19c-8 4 -11 7 -15 16c-11 22 -22 95 -23 105
c-2 13 -2 20 -2 20c0 8 1 17 6 24c3 3 5 6 10 8s11 4 19 4h38c8 0 15 6 15 14c0 0 -1 9 -1 18v24c0 8 2 13 5 17c4 6 13 11 20 13c9 3 45 4 68 -5c9 -4 16 -13 18 -24c13 0 36 0 55 -2c24 -3 42 -7 51 -10s18 -11 21 -27zM249 203c10 0 19 -3 27 -6c0 11 -2 28 -20 29
c-16 1 -21 -13 -22 -24c5 1 10 1 15 1z" />
    </font>
</defs>
</svg>
